Ссылка на приватное зеркало нашего сайта всего за 1$. Внимание количество ограничено!!!

2 сезон

iTunes

1 сезон

1

2 сезон

2 сезон

iTunes

1 сезон

RePack

30

Новинка

ВАЖНО

ИГРА 18+

pack

RePack

MK11
pack

Забери бонус

RePack

jed

!!Акция!!

Alien_Rage

RePack

fifa19

RePack

Assassins Creed: Odyssey

RePack

NEED FOR SPEED™ PAYBACK

4 сезон

9 сезон

Бесстыжие 9 сезон

Все сериалы

все сериалы на PB.wtf

RePack

FAR CRY 5
  

Чёрная Пантера / Black Panther (Райан Куглер) [2018, фантастика, боевик, приключения, BD Remux 1080p] MVO [HDRezka Studio] +DUB [Лицензия] pb.wtf

Чёрная Пантера через торрент pb.wtf

Размер: 27.65 GB | Добавлен: 2 года 6 мес. назад | Торрент скачан:83 раза
Скачать  

25-05-2018 22:22 Чёрная Пантера Скачать торрент  

Чёрная Пантера / Black Panther
Год выпуска: 2018
Страна: США
Жанр: фантастика, боевик, приключения
Продолжительность: 02:14:44
Перевод:

#1: Дублированный | Лицензия
#2: Профессиональный многоголосый | HDRezka Studio

Субтитры: Русские (forced, full, SDH (iTunes)), английские (full, SDH, SDH Colored)

Режиссер: Райан Куглер

rating

В ролях:

Чедвик Боузман, Майкл Б. Джордан, Лупита Нионго, Данай Джекесай Гурира, Мартин Фриман, Дэниэл Калуя, Летишиа Райт, Уинстон Дьюк, Стерлинг К. Браун, Анджела Бассетт

Описание:

С первого взгляда можно решить, что Ваканда — обычная территория дикой Африки, но это не так. Здесь, в недрах пустынных земель, скрываются залежи уникального металла, способного поглощать вибрацию. Многие пытались добраться до него, разоряя всё на своём пути и принося смерть аборигенам, но каждый раз таинственный дух саванны — Чёрная Пантера — вставал на защиту угнетённых.

Качество: BD Remux 1080p
Формат: MKV

Видео: MPEG-4 AVC, 1920x1080, 23.6 Mbit/s, 23.976 fps
Аудио#1: 48 kHz, AC3, 5.1, 640 Kbps | RUS |
Аудио#2: 48 kHz, AC3, 2.0, 192 Kbps | HDRezka Studio | RUS |
Аудио#3: 48 kHz, DTS-HD MA, 7.1, 4981 Kbps | Оригинал | ENG |
скриншот   скриншот   скриншот   скриншот   скриншот  

General
Unique ID : 155185238481430156191863175560223444181 (0x74BF96FB4951142F3CDF447CA906CCD5)
Complete name : C:Video111Black.Panther.2018.Lic.BDREMUX.1080p.ExKinoRay.mkv
Format : Matroska
Format version : Version 4 / Version 2
File size : 27.6 GiB
Duration : 2 h 14 min
Overall bit rate mode : Variable
Overall bit rate : 29.4 Mb/s
Movie name : Black Panther 2018 from ExKinoRay
Encoded date : UTC 2018-05-25 22:02:10
Writing application : mkvmerge v22.0.0 ('At The End Of The World') 64-bit
Writing library : libebml v1.3.5 + libmatroska v1.4.8

Video
ID : 1
Format : AVC
Format/Info : Advanced Video Codec
Format profile : High@L4.1
Format settings : CABAC / 4 Ref Frames
Format settings, CABAC : Yes
Format settings, ReFrames : 4 frames
Codec ID : V_MPEG4/ISO/AVC
Duration : 2 h 14 min
Bit rate mode : Variable
Bit rate : 23.6 Mb/s
Maximum bit rate : 35.0 Mb/s
Width : 1 920 pixels
Height : 1 080 pixels
Display aspect ratio : 16:9
Frame rate mode : Constant
Frame rate : 23.976 (24000/1001) FPS
Color space : YUV
Chroma subsampling : 4:2:0
Bit depth : 8 bits
Scan type : Progressive
Bits/(Pixel*Frame) : 0.475
Stream size : 22.2 GiB (80%)
Language : English
Default : Yes
Forced : No

Audio #1
ID : 2
Format : AC-3
Format/Info : Audio Coding 3
Codec ID : A_AC3
Duration : 2 h 14 min
Bit rate mode : Constant
Bit rate : 640 kb/s
Channel(s) : 6 channels
Channel positions : Front: L C R, Side: L R, LFE
Sampling rate : 48.0 kHz
Frame rate : 31.250 FPS (1536 SPF)
Bit depth : 16 bits
Compression mode : Lossy
Stream size : 616 MiB (2%)
Title : Dub [License]
Language : Russian
Service kind : Complete Main
Default : Yes
Forced : Yes

Audio #2
ID : 3
Format : AC-3
Format/Info : Audio Coding 3
Codec ID : A_AC3
Duration : 2 h 14 min
Bit rate mode : Constant
Bit rate : 192 kb/s
Channel(s) : 2 channels
Channel positions : Front: L R
Sampling rate : 48.0 kHz
Frame rate : 31.250 FPS (1536 SPF)
Bit depth : 16 bits
Compression mode : Lossy
Stream size : 185 MiB (1%)
Title : MVO
Language : Russian
Service kind : Complete Main
Default : No
Forced : No

Audio #3
ID : 4
Format : DTS
Format/Info : Digital Theater Systems
Format profile : MA / Core
Codec ID : A_DTS
Duration : 2 h 14 min
Bit rate mode : Variable / Constant
Bit rate : 4 981 kb/s / 1 509 kb/s
Channel(s) : 8 channels / 6 channels
Channel positions : Front: L C R, Side: L R, Back: L R, LFE / Front: L C R, Side: L R, LFE
Sampling rate : 48.0 kHz
Frame rate : 93.750 FPS (512 SPF)
Bit depth : 24 bits
Compression mode : Lossless / Lossy
Stream size : 4.68 GiB (17%)
Title : Original
Language : English
Default : No
Forced : No

Text #1
ID : 5
Format : UTF-8
Codec ID : S_TEXT/UTF8
Codec ID/Info : UTF-8 Plain Text
Duration : 2 h 12 min
Bit rate : 2 b/s
Count of elements : 77
Stream size : 2.20 KiB (0%)
Title : Forced
Language : Russian
Default : Yes
Forced : Yes

Text #2
ID : 6
Format : UTF-8
Codec ID : S_TEXT/UTF8
Codec ID/Info : UTF-8 Plain Text
Duration : 2 h 14 min
Bit rate : 64 b/s
Count of elements : 1460
Stream size : 63.8 KiB (0%)
Title : Full
Language : Russian
Default : No
Forced : No

Text #3
ID : 7
Format : UTF-8
Codec ID : S_TEXT/UTF8
Codec ID/Info : UTF-8 Plain Text
Duration : 2 h 14 min
Bit rate : 78 b/s
Count of elements : 1849
Stream size : 77.3 KiB (0%)
Title : SDH
Language : Russian
Default : No
Forced : No

Text #4
ID : 8
Format : UTF-8
Codec ID : S_TEXT/UTF8
Codec ID/Info : UTF-8 Plain Text
Duration : 2 h 14 min
Bit rate : 41 b/s
Count of elements : 1581
Stream size : 40.4 KiB (0%)
Title : Full
Language : English
Default : No
Forced : No

Text #5
ID : 9
Format : UTF-8
Codec ID : S_TEXT/UTF8
Codec ID/Info : UTF-8 Plain Text
Duration : 2 h 14 min
Bit rate : 47 b/s
Count of elements : 1835
Stream size : 47.1 KiB (0%)
Title : SDH
Language : English
Default : No
Forced : No

Text #6
ID : 10
Format : UTF-8
Codec ID : S_TEXT/UTF8
Codec ID/Info : UTF-8 Plain Text
Duration : 2 h 14 min
Bit rate : 66 b/s
Count of elements : 1834
Stream size : 65.1 KiB (0%)
Title : SDH Colored
Language : English
Default : No
Forced : No

Menu
00:00:00.000 : en:00:00:00.000
00:06:56.291 : en:00:06:56.291
00:12:02.805 : en:00:12:02.805
00:19:12.360 : en:00:19:12.360
00:28:32.961 : en:00:28:32.961
00:33:11.698 : en:00:33:11.698
00:40:57.497 : en:00:40:57.497
00:48:34.036 : en:00:48:34.036
00:53:46.098 : en:00:53:46.098
01:01:57.339 : en:01:01:57.339
01:08:33.026 : en:01:08:33.026
01:16:46.769 : en:01:16:46.769
01:22:24.022 : en:01:22:24.022
01:31:21.434 : en:01:31:21.434
01:41:15.361 : en:01:41:15.361
01:50:56.483 : en:01:50:56.483
01:59:16.941 : en:01:59:16.941
02:02:43.648 : en:02:02:43.648

pb.wtf



Скачать Чёрная Пантера через торрент http://pic1.kartinco.top/images/11/6b42k.jpg Скачать фильм Чёрная Пантера через торрент бесплантно в хорошем качестве Описание: С первого взгляда можно решить, что Ваканда — обычная территория дикой Африки, но это не так. Здесь, в недрах пустынных земель, ... 10 10 3
Торрент: Зарегистрирован [2018-05-25 22:22] · скачан: 83 раз
Статус: √ проверено
Размер: 27.65 GB
Как cкачать? Как скачать Чёрная Пантера через торрент | qTorrent

% Раздел Тема Автор DL S | L
Фильмы (HD 720p, 1080p) (48-60 fps) [ 5.5 GB ] Чёрная Пантера / Black Panther [2018 Hybrid 720p / 60 FPS ] от R.G. HD-Films slaventi-69 Скачать
1 | 0
Ultra HD (UHD: 2K, 4K, 8K) — видео сверхвысокой чёткости [ 16.31 GB ] Чёрная Пантера / Black Panther [2018 UHD BDRip 2160p] DUB [] bober100 Скачать
2 | 0
Ultra HD (UHD: 2K, 4K, 8K) — видео сверхвысокой чёткости [ 45.47 GB ] Чёрная Пантера / Black Panther [2018 UHD BDRemux 2160p] DUB [Dolby Vision TV] sheker187 Скачать
1 | 0
Фильмы (Blu-ray, BD-Remux, HDDVD) [ 40.08 GB ] Чёрная Пантера / Black Panther [2018 Blu-ray EUR 1080p] DUB [] bober100 Скачать
1 | 0
Фильмы (HD 720p, 1080p) (48-60 fps) [ 7.77 GB ] Чёрная Пантера / Black Panther [2018 BDRip - HEVC 1080p 12 bit 60 FPS] - [] dd2d3 Скачать
2 | 1
Фильмы (HD 720p, 1080p) (48-60 fps) [ 6.66 GB ] Чёрная Пантера / Black Panther [2018 BDRip 720p 60 fps от еnvy / NNNB] DUB | еnvy Скачать
10 | 0
Ultra HD (UHD: 2K, 4K, 8K) — видео сверхвысокой чёткости [ 12.43 GB ] Чёрная Пантера / Black Panther [2018 UHDRip 2160p HEVC ] Мичман37 Скачать
1 | 0

28-11-2019 20:33  

Отключить всю рекламу на сайте

    Дорогой пользователь! Огромная просьба, поблагодарите релизера, оцените раздачу и оставьте свои комментарий, если Вы скачали Чёрная Пантера через торрент бесплатно! Внесите свою лепту в развитие PiratBit!
    Комментировать посты могут только пользователи прошедшие не сложную регистрацию
    Показать сообщения:    

    Чёрная Пантера через торрент
    Скачать бесплатно Чёрная Пантера
    Чёрная Пантера скачать торрент
    Чёрная Пантера смотреть онлайн
    Cкачать фильм Чёрная Пантера бесплатно
    Чёрная Пантера скачать торрент в хорошем качестве
    Чёрная Пантера смотреть онлайн бесплатно в хорошем качестве


    Вы не можете начинать темы
    Вы не можете отвечать на сообщения
    Вы не можете редактировать свои сообщения
    Вы не можете удалять свои сообщения
    Вы не можете голосовать в опросах
    Вы не можете прикреплять файлы к сообщениям
    Вы можете скачивать файлы