Ссылка на приватное зеркало нашего сайта всего за 1$. Внимание количество ограничено!!!

2 сезон

iTunes

1 сезон

1

2 сезон

2 сезон

iTunes

1 сезон

RePack

30

Ultimate

ВАЖНО

ИГРА 18+

pack

RePack

MK11
pack

Забери бонус

RePack

jed

!!Акция!!

Alien_Rage

RePack

fifa19

RePack

Assassins Creed: Odyssey

RePack

NEED FOR SPEED™ PAYBACK

4 сезон

9 сезон

Бесстыжие 9 сезон

Все сериалы

все сериалы на PB.wtf

RePack

FAR CRY 5
  

Флэш / The Flash / Сезон: 4 / Серии: 1-23 из 23 (Джесси Варн, Ральф Хемекер, Зак Стенц) [2017, фантастика, боевик, приключения, WEBRip] MVO [Profix Media] pb.wtf

Флэш через торрент pb.wtf

Размер: 11.55 GB | Добавлен: 2 года 6 мес. назад | Торрент скачан:39 раз
Скачать  

26-05-2018 06:03 Флэш Скачать торрент  

Флэш / The Flash
Год выпуска: 2017
Страна: США
Жанр: фантастика, боевик, драма, приключения
Продолжительность: ~00:43:00
Перевод: Профессиональный многоголосый | Profix Media
Субтитры: отсутствуют

Режиссер: Джесси Варн, Ральф Хемекер, Зак Стенц, Кевин Смит

rating

В ролях:

Грант Гастин, Кэндис Паттон, Даниэль Панабэйкер, Карлос Валдес, Томас Кэвэна, Джесси Л. Мартин, Кейнан Лонсдейл, Рик Коснетт

Описание:

Когда Барри было одиннадцать лет, он на собственном опыте узнал, что люди с необычными способностями действительно существуют: его мать была убита одним из таких людей. Повзрослев и став судмедэкспертом, Барри не отбросил мыслей о сверхлюдях и продолжал искать доказательства их существования, что не лучшим образом сказывалось на его репутации и общении с коллегами. Впрочем, однажды его усилия были вознаграждены…

Качество: WEBRip
Формат: AVI

Видео: ~ 1527 Кбит/с, 720х400
Аудио: Русский (MP3, 2 ch, 256 Кбит/с)
скриншот   скриншот   скриншот   скриншот  

Общее
Полное имя : F:\The.Flash.S04.WEBRip.Profix.Media\The.Flash.S04E01.WEBRip.Profix.Media.avi
Формат : AVI
Формат/Информация : Audio Video Interleave
Размер файла : 560 Мбайт
Продолжительность : 42 м. 50 с.
Общий поток : 1827 Кбит/сек
Программа кодирования : Lavf57.25.100

Видео
Идентификатор : 0
Формат : xvid
Идентификатор кодека : xvid
Продолжительность : 42 м. 50 с.
Битрейт : 1558 Кбит/сек
Ширина : 720 пикселей
Высота : 400 пикселей
Соотношение сторон : 16:9
Частота кадров : 23,976 кадра/сек
Тип развёртки : Прогрессивная
Бит/(Пиксели*Кадры) : 0.226
Размер потока : 478 Мбайт (85%)
Заголовок : Video Track

Аудио
Идентификатор : 1
Формат : MPEG Audio
Версия формата : Version 1
Профиль формата : Layer 3
Режим : Joint stereo
Идентификатор кодека : 55
Идентификатор кодека/Подсказка : MP3
Продолжительность : 42 м. 50 с.
Вид битрейта : Постоянный
Битрейт : 256 Кбит/сек
Каналы : 2 канала
Частота : 48,0 КГц
Метод сжатия : С потерями
Размер потока : 78,5 Мбайт (14%)
Выравнивание : Соединение по промежуткам
Продолжительность промежутка : 24 мс. (0,58 видеокадр)
Заголовок : Audio Track

pb.wtf



Скачать Флэш через торрент http://img12.lostpic.net/2017/10/11/be3f74dfd493975df73104960c4931ef.png Скачать фильм Флэш через торрент бесплантно в хорошем качестве Описание: Когда Барри было одиннадцать лет, он на собственном опыте узнал, что люди с необычными способностями действительно существуют: ... 10 10 3
Торрент: Зарегистрирован [2018-05-26 06:03] · скачан: 39 раз
Статус: √ проверено
Размер: 11.55 GB
Как cкачать? Как скачать Флэш через торрент | qTorrent

% Раздел Тема Автор DL S | L
Зарубежные сериалы [ 28.19 GB ] Флэш / The Flash / Сезон: 4 / Серии: 1-23 из 23 [2017 WEBRip 720p] MVO [Profix Media] bober100 Скачать
1 | 0
Зарубежные сериалы [ 11.4 GB ] Флэш / The Flash / Сезон: 4 / Серии 1-23 из 23 [2017 WEBRip] MVO [BaibaKo] GEKADOL Скачать
1 | 0
Зарубежные сериалы [ 40.9 GB ] Флэш / The Flash / Сезон: 4 / Серии: 1-23 из 23 [2017 WEB-DL 1080p] MVO [LostFilm] bober100 Скачать
1 | 0
Зарубежные сериалы [ 43.38 GB ] Флэш / The Flash / Сезон: 4 / Серии: 1-23 из 23 [2017 WEBRip 1080p] MVO [Profix Media] bober100 Скачать
1 | 0
Зарубежные сериалы [ 19.54 GB ] Флэш / The Flash / Сезон: 4 / Серии: 1-23 из 23 [2017 HDTVRip 720p] DVO [Sunshine Studio] bober100 Скачать
1 | 0
Зарубежные сериалы [ 11.58 GB ] Флэш / The Flash / Сезон: 4 / Серии: 1-23 из 23 [2017 HDTVRip] DVO [Sunshine Studio] bober100 Скачать
1 | 0
Зарубежные сериалы [ 37.24 GB ] Флэш / The Flash / Сезон: 4 / Серии 1-23 из 23 [2017 WEBRip 720p] MVO [BaibaKo] GEKADOL Скачать
1 | 0

28-11-2019 20:33  

Отключить всю рекламу на сайте

    Дорогой пользователь! Огромная просьба, поблагодарите релизера, оцените раздачу и оставьте свои комментарий, если Вы скачали Флэш через торрент бесплатно! Внесите свою лепту в развитие PiratBit!
    Комментировать посты могут только пользователи прошедшие не сложную регистрацию
    Показать сообщения:    

    Флэш через торрент
    Скачать бесплатно Флэш
    Флэш скачать торрент
    Флэш смотреть онлайн
    Cкачать фильм Флэш бесплатно
    Флэш скачать торрент в хорошем качестве
    Флэш смотреть онлайн бесплатно в хорошем качестве


    Вы не можете начинать темы
    Вы не можете отвечать на сообщения
    Вы не можете редактировать свои сообщения
    Вы не можете удалять свои сообщения
    Вы не можете голосовать в опросах
    Вы не можете прикреплять файлы к сообщениям
    Вы можете скачивать файлы