Ссылка на приватное зеркало всего за 1$. Внимание количество ограничено!!!

OK

1+1

iTunes

мы

OK

1

WEB-DLRip

Джокер

Пифагор

Ведьмак / The Witcher сериал

iTunes

ПШазам

ОК

Оно 2

iTunes

30
pack

Вам бонус

ВАЖНО

!!Акция!!

Alien_RageХит недели

RePack

Resident Evil 21

ИГРА 18+

pack

RePack

jed

RePack

fifa19

RePack

Assassins Creed: Odyssey

RePack

NEED FOR SPEED™ PAYBACK

4 сезон

9 сезон

Бесстыжие 9 сезон

Все сериалы

все сериалы на PB.wtf

RePack

FAR CRY 5
  

Амазонские приключения / Amazon Obhijaan (Камалешвар Мукхерджи) [2017, Боевик, триллер, приключения, WEB-DL 720p] MVO ["Синема УС"] pb.wtf

Амазонские приключения через торрент pb.wtf

Раздают: 1 [ 0 KB/s ]
Размер: 4.79 GB | Добавлен: 1 год 8 мес. назад | Торрент скачан:226 раз
Скачать  

26-05-2018 11:26 Амазонские приключения Скачать торрент  

Амазонские приключения / Amazon ObhijaanГод выпуска: 2017
Страна: Индия
Жанр: Боевик, триллер, приключения
Продолжительность: 02:19:53
Перевод: Любительский (многоголосый) | "Синема УС"
Субтитры: отсутствуют

Режиссер: Камалешвар Мукхерджи

rating

В ролях:

Дев, Дэвид Джеймс, Светлана Гулакова, Лабони Саркар, Тамаль Рэй Ховдури, Эдуардо Муниз, Рони Факкини, Марджори Жерарди, Фелипе Монтанари, Эдуардо Семирян

Описание:

Шанкар отправляется в Амазонские леса Бразилии в поисках золотых рудников, где он сталкивается с рядом опасностей и сталкивается с испытанием на выживание ...

Качество: WEB-DL 720p
Формат: MKV

Видео: h.264, 4 512 kb/s, 1280x544
Аудио#1: Русский, (AC3, 2 ch, 384 Кбит/с)
скриншот  скриншот  скриншот  

Общее
Уникальный идентификатор : 200869388176166734332814851145924058819 (0x971E097634997E6AAF140D8F140F9EC3)
Полное имя : F:\Amazon_Obhijaan_2017.P.WEB-DL.72Op_KOSHARA.mkv
Формат : Matroska
Версия формата : Version 2
Размер файла : 4,79 Гбайт
Продолжительность : 2 ч. 19 м.
Режим общего битрейта : Переменный
Общий поток : 4898 Кбит/сек
Дата кодирования : UTC 2018-05-24 03:42:04
Программа кодирования : mkvmerge v8.3.0 ('Over the Horizon') 64bit
Библиотека кодирования : libebml v1.3.1 + libmatroska v1.4.2

Видео
Идентификатор : 1
Формат : AVC
Формат/Информация : Advanced Video Codec
Профиль формата : High@L4.1
Параметр CABAC формата : Да
Параметр RefFrames формата : 4 кадра
Идентификатор кодека : V_MPEG4/ISO/AVC
Продолжительность : 2 ч. 19 м.
Вид битрейта : Переменный
Битрейт : 4512 Кбит/сек
Максимальный битрейт : 5000 Кбит/сек
Ширина : 1280 пикселей
Высота : 544 пикселя
Соотношение сторон : 2,35:1
Режим частоты кадров : Постоянный
Частота кадров : 23,976 (24000/1001) кадра/сек
Стандарт вещания : Component
Цветовое пространство : YUV
Субдискретизация насыщенности : 4:2:0
Битовая глубина : 8 бит
Тип развёртки : Прогрессивная
Бит/(Пиксели*Кадры) : 0.265
Размер потока : 4,32 Гбайт (90%)
Default : Да
Forced : Нет
Цветовой диапазон : Limited
Основные цвета : BT.709
Характеристики трансфера : BT.709
Коэффициенты матрицы : BT.709

Аудио
Идентификатор : 2
Формат : AC-3
Формат/Информация : Audio Coding 3
Расширение режима : CM (complete main)
Параметр Endianness формата : Big
Идентификатор кодека : A_AC3
Продолжительность : 2 ч. 19 м.
Вид битрейта : Постоянный
Битрейт : 384 Кбит/сек
Каналы : 2 канала
Расположение каналов : Front: L R
Частота : 48,0 КГц
Частота кадров : 31,250 кадров/сек (1536 spf)
Метод сжатия : С потерями
Размер потока : 384 Мбайт (8%)
Default : Да
Forced : Нет

pb.wtf



Скачать Амазонские приключения через торрент http://img12.lostpic.net/2018/05/26/15cd9670989686cf1a6c6a73e26edbb0.jpg Скачать фильм Амазонские приключения через торрент бесплантно в хорошем качестве Описание: Шанкар отправляется в Амазонские леса Бразилии в поисках золотых рудников, где он сталкивается с рядом опасностей и сталкивается ... 10 10 4
Торрент: Зарегистрирован [2018-05-26 11:26] · скачан: 226 раз
Статус: T временная
Размер: 4.79 GB
Как cкачать? Как скачать Амазонские приключения через торрент | qTorrent

% Раздел Тема Автор DL S | L
T Фильмы (мультфильмы) cо спонсором показа (Новинки AVI/MKV) [ 2.18 GB ] Амазонские / Amazon Obhijaan [2017 WEB-DLRip] MVO ["Синема УС"] bober100 Скачать
1 | 0
T Фильмы (мультфильмы) cо спонсором показа (Новинки AVI/MKV) [ 1.46 GB ] Амазонские / Amazon Obhijaan [2017 WEB-DLRip] MVO ["Синема УС"] bober100 Скачать
1 | 0

28-11-2019 20:33  

Отключить всю рекламу на сайте

26-05-2018 14:39 Амазонские приключения Скачать торрент  

30 чел скачали хоть бы кто нибудь спасибо сказал за раздачу ну и отзыв о фильме оставили нет же молчуны блин. Релизеру спс за раздачу посмотрю отпишусьpb.wtf



26-05-2018 15:14 Амазонские приключения Скачать торрент  

Спасибо, сейчас заценим под пиво pb.wtf



26-05-2018 16:30 Амазонские приключения Скачать торрент  

Какие то все звери мультяшные, сразу видно что индийские 3D аниматоры поработали pb.wtf



26-05-2018 20:45 Амазонские приключения Скачать торрент  

блин фильм весь мультяшный ,плохая зелёная тряпка видимо у индийцев. или курили много.=)) pb.wtf



26-05-2018 21:28 Амазонские приключения Скачать торрент  

гамноpb.wtf



    Дорогой пользователь! Огромная просьба, поблагодарите релизера, оцените раздачу и оставьте свои комментарий, если Вы скачали Амазонские приключения через торрент бесплатно! Внесите свою лепту в развитие PiratBit!
    Комментировать посты могут только пользователи прошедшие не сложную регистрацию
    Показать сообщения:    

    Амазонские приключения через торрент
    Скачать бесплатно Амазонские приключения
    Амазонские приключения скачать торрент
    Амазонские приключения смотреть онлайн
    Cкачать фильм Амазонские приключения бесплатно
    Амазонские приключения скачать торрент в хорошем качестве
    Амазонские приключения смотреть онлайн бесплатно в хорошем качестве


    Вы не можете начинать темы
    Вы не можете отвечать на сообщения
    Вы не можете редактировать свои сообщения
    Вы не можете удалять свои сообщения
    Вы не можете голосовать в опросах
    Вы не можете прикреплять файлы к сообщениям
    Вы можете скачивать файлы