Доктор Стрэндж

Лицензия

Добыча

MVO

Дом дракона

1 сезон

Тор

Лицензия

Мэверик

Лицензия

Там, где раки поют

MVO

Властелин колец

1 сезон

Ultimate

pack

Рекомендуем

30

Repack

ВАЖНО

ВАЖНО

Ghostwire

RePack

jed

RePack

nioh2

RePack

RDR2

RePack

NEED FOR SPEED™ PAYBACK

RePack

скачать торрент

Кинопоиск HD

Острые козырьки 6 сезон

6 сезон

FAR CRY 6

RePack

скачать торрент

Лицензия

скачать торрент

MVO

1

1 сезон

скачать торрент

1 сезон

скачать торрент

Лицензия

  

Роман Израэл, Esq. / Roman J. Israel, Esq. (Дэн Гилрой) [2017, драма, криминал, BDRip-AVC] MVO [Лицензия]

Роман Израэл, Esq. через торрент pb.wtf

Размер: 3.16 GB | Добавлен: 4 года 4 мес. назад | Торрент скачан:102 раза
Смотреть онлайн | Скачать   

27-05-2018 09:12 Роман Израэл, Esq. Скачать торрент  

Роман Израэл, Esq. / Roman J. Israel, Esq.
Год выпуска: 2017
Страна: США
Жанр: драма, криминал
Продолжительность: 02:02:20
Перевод: Профессиональный многоголосый | Лицензия
Субтитры: Русские, английские

Режиссер: Дэн Гилрой

rating

В ролях:

Дензел Вашингтон, Колин Фаррелл, Кармен Эджого, Линда Граватт, Аманда Уоррен, Хьюго Армстронг, Сэм Гилрой, Тони Плана, Дерон Хортон, Амари Читом

Описание:

История опытного адвоката с твёрдой хваткой, Романа Дж. Израэля, на которого свалилось управление крупной фирмой после того, как его босса настиг сердечный приступ. Оказавшись у власти, Израэль узнаёт о тайных делах своей компании, противоречащих его профессиональным и моральным принципам.

Качество: BDRip-AVC
Формат: MKV

Видео: 1024x554 (1.85:1), 23,976 fps, x264 ~2 798 kbps avg, 0.206 bit/pixel
Аудио#1: 48 kHz, AC3 Dolby Digital, 3/2 (L,C,R,l,r) + LFE ch, ~448.00 kbps avg | RUS (Лицензия)
Аудио#2: 48 kHz, AC3 Dolby Digital, 3/2 (L,C,R,l,r) + LFE ch, ~448.00 kbps avg | ENG
скриншот   скриншот   скриншот   скриншот  

Общее
Уникальный идентификатор : 196507708657031491544313814199142464914 (0x93D6020EF20B355FB80A6A9C91BC3D92)
Полное имя : E:\OlLanDGroup\Roman.J.Israel.Esq.2017.BDRip(AVC)OlLanDGroup.mkv
Формат : Matroska
Версия формата : Version 2
Размер файла : 3,11 Гбайт
Продолжительность : 2 ч. 2 м.
Общий поток : 3637 Кбит/сек
Название фильма : Roman.J.Israel.Esq.2017 #TorpedoUK#
Дата кодирования : UTC 2018-03-26 01:18:30
Программа кодирования : mkvmerge v7.8.0 ('River Man') 32bit built on Apr 3 2015 12:11:22
Библиотека кодирования : libebml v1.3.1 + libmatroska v1.4.2
Обложка : Yes
Attachments : small_cover.jpg / small_cover_land.jpg / cover.jpg / cover_land.jpg

Видео
Идентификатор : 1
Формат : AVC
Формат/Информация : Advanced Video Codec
Профиль формата : [email protected]
Параметр CABAC формата : Да
Параметр ReFrames формата : 10 кадров
Идентификатор кодека : V_MPEG4/ISO/AVC
Продолжительность : 2 ч. 2 м.
Битрейт : 2798 Кбит/сек
Ширина : 1024 пикселя
Высота : 554 пикселя
Соотношение сторон : 1,85:1
Режим частоты кадров : Постоянный
Частота кадров : 23,976 (24000/1001) кадра/сек
Цветовое пространство : YUV
Субдискретизация насыщенности : 4:2:0
Битовая глубина : 8 бит
Тип развёртки : Прогрессивная
Бит/(Пиксели*Кадры) : 0.206
Размер потока : 2,33 Гбайт (75%)
Библиотека кодирования : x264 core 146 r2538 121396c
Настройки программы : cabac=1 / ref=10 / deblock=1:-2:-3 / analyse=0x3:0x133 / me=umh / subme=11 / psy=1 / psy_rd=0.97:0.07 / mixed_ref=1 / me_range=48 / chroma_me=1 / trellis=2 / 8x8dct=1 / cqm=0 / deadzone=21,11 / fast_pskip=1 / chroma_qp_offset=-3 / threads=6 / lookahead_threads=1 / sliced_threads=0 / nr=0 / decimate=1 / interlaced=0 / bluray_compat=0 / constrained_intra=0 / bframes=10 / b_pyramid=2 / b_adapt=2 / b_bias=0 / direct=3 / weightb=1 / open_gop=0 / weightp=2 / keyint=240 / keyint_min=23 / scenecut=40 / intra_refresh=0 / rc_lookahead=40 / rc=2pass / mbtree=0 / bitrate=2798 / ratetol=1.0 / qcomp=0.60 / qpmin=0 / qpmax=69 / qpstep=4 / cplxblur=20.0 / qblur=0.5 / vbv_maxrate=50000 / vbv_bufsize=62500 / nal_hrd=none / filler=0 / ip_ratio=1.40 / pb_ratio=1.30 / aq=1:1.00
Язык : English
Default : Да
Forced : Нет

Аудио #1
Идентификатор : 2
Формат : AC-3
Формат/Информация : Audio Coding 3
Расширение режима : CM (complete main)
Параметр Endianness формата : Big
Идентификатор кодека : A_AC3
Продолжительность : 2 ч. 2 м.
Вид битрейта : Постоянный
Битрейт : 448 Кбит/сек
Каналы : 6 каналов
Расположение каналов : Front: L C R, Side: L R, LFE
Частота : 48,0 КГц
Частота кадров : 31,250 кадров/сек (1536 spf)
Битовая глубина : 16 бит
Метод сжатия : С потерями
Размер потока : 336 Мбайт (11%)
Заголовок : BD EUR
Язык : Russian
Default : Да
Forced : Нет

Аудио #2
Идентификатор : 3
Формат : AC-3
Формат/Информация : Audio Coding 3
Расширение режима : CM (complete main)
Параметр Endianness формата : Big
Идентификатор кодека : A_AC3
Продолжительность : 2 ч. 2 м.
Вид битрейта : Постоянный
Битрейт : 448 Кбит/сек
Каналы : 6 каналов
Расположение каналов : Front: L C R, Side: L R, LFE
Частота : 48,0 КГц
Частота кадров : 31,250 кадров/сек (1536 spf)
Битовая глубина : 16 бит
Метод сжатия : С потерями
Размер потока : 392 Мбайт (12%)
Заголовок : Original
Язык : English
Default : Нет
Forced : Нет

Текст #1
Идентификатор : 4
Формат : UTF-8
Идентификатор кодека : S_TEXT/UTF8
Идентификатор кодека/Информация : UTF-8 Plain Text
Заголовок : Full
Язык : Russian
Default : Нет
Forced : Нет

Текст #2
Идентификатор : 5
Формат : UTF-8
Идентификатор кодека : S_TEXT/UTF8
Идентификатор кодека/Информация : UTF-8 Plain Text
Заголовок : Full
Язык : English
Default : Нет
Forced : Нет

Текст #3
Идентификатор : 6
Формат : UTF-8
Идентификатор кодека : S_TEXT/UTF8
Идентификатор кодека/Информация : UTF-8 Plain Text
Заголовок : SDH
Язык : English
Default : Нет
Forced : Нет

Меню
00:00:00.000 : en:Chapter 01
00:11:42.201 : en:Chapter 02
00:24:00.397 : en:Chapter 03
00:29:22.719 : en:Chapter 04
00:43:31.358 : en:Chapter 05
00:50:22.436 : en:Chapter 06
00:54:07.202 : en:Chapter 07
01:02:18.901 : en:Chapter 08
01:07:25.124 : en:Chapter 09
01:11:39.628 : en:Chapter 10
01:15:10.380 : en:Chapter 11
01:20:32.035 : en:Chapter 12
01:25:34.963 : en:Chapter 13
01:31:17.430 : en:Chapter 14
01:40:01.412 : en:Chapter 15
01:51:26.137 : en:Chapter 16




Скачать Роман Израэл, Esq. через торрент http://lostpix.com/img/2018-03/26/51r4gl0x6wvbc2ofm6xpwtofm.jpg Скачать, смотреть онлайн Роман Израэл, Esq. бесплантно в хорошем качестве Описание: История опытного адвоката с твёрдой хваткой, Романа Дж. Израэля, на которого свалилось управление крупной фирмой после того, как ... 8.5 10 6
Торрент: Зарегистрирован [2018-05-27 09:12] · скачан: 102 раз
Статус: √ проверено
Размер: 3.16 GB
Как cкачать? Как скачать Роман Израэл, Esq. через торрент | UTorrent

% Раздел Тема Автор DL S | L
Ultra HD (UHD: 2K, 4K, 8K) [ 22.59 GB ] Роман Израэл, Esq. / Roman J. Israel, Esq. | Лицензия | 2160p bober100 Скачать
1 | 0
Фильмы 2017 [DVDrip, WEB-DLRip, HDrip] (DUB, MVO) [ 1.46 GB ] Роман Израэл, Esq. / Roman J. Israel, Esq. | Лицензия | BDRip от Twi7ter Twi7ter Скачать
1 | 0
Фильмы (Blu-ray, BD-Remux, HDDVD) [ 25 GB ] Роман Израэл, Esq. / Roman J. Israel, Esq. | Лицензия | BD Remux 1080p bober100 Скачать
1 | 0
Фильмы [HD 720p, 1080p] (Хороший звук DUB, MVO) [ 5.65 GB ] Роман Израэл, Esq. / Roman J. Israel, Esq. | Лицензия | 720p bober100 Скачать
1 | 0
Фильмы [HD 720p, 1080p] (Хороший звук DUB, MVO) [ 12.78 GB ] Роман Израэл, Esq. / Roman J. Israel, Esq. | Лицензия | 1080p bober100 Скачать
1 | 0
Фильмы 2017 [DVDrip, WEB-DLRip, HDrip] (DUB, MVO) [ 2.18 GB ] Роман Израэл, Esq. / Roman J. Israel, Esq. | Лицензия BD EUR | BDRip bober100 Скачать
1 | 0
Фильмы 2017 [DVDrip, WEB-DLRip, HDrip] (DUB, MVO) [ 1.46 GB ] Роман Израэл, Esq. / Roman J. Israel, Esq. | Лицензия BD EUR | BDRip bober100 Скачать
1 | 0

28-11-2019 20:33  


Отключить вcю реклaмy на сайте, в т.ч. и в плеере онлайн просмотра!

    Дорогой пользователь! Огромная просьба, поблагодарите релизера, оцените раздачу и оставьте свои комментарий, если Вы скачали Роман Израэл, Esq. через торрент бесплатно!!
    Комментировать посты могут только пользователи прошедшие не сложную регистрацию
    Показать сообщения:    


    Роман Израэл, Esq. через торрент
    Скачать бесплатно Роман Израэл, Esq.
    Роман Израэл, Esq. скачать торрент
    Роман Израэл, Esq. смотреть онлайн
    Cкачать фильм Роман Израэл, Esq. бесплатно
    Роман Израэл, Esq. скачать торрент в хорошем качестве
    Роман Израэл, Esq. смотреть онлайн бесплатно в хорошем качестве
    Вы не можете начинать темы
    Вы не можете отвечать на сообщения
    Вы не можете редактировать свои сообщения
    Вы не можете удалять свои сообщения
    Вы не можете голосовать в опросах
    Вы не можете прикреплять файлы к сообщениям
    Вы можете скачивать файлы