Ссылка на приватное зеркало нашего сайта всего за 1$. Внимание количество ограничено!!!

2 сезон

iTunes

1 сезон

1

2 сезон

2 сезон

iTunes

1 сезон

RePack

30

Новинка

ВАЖНО

ИГРА 18+

pack

RePack

MK11
pack

Забери бонус

RePack

jed

!!Акция!!

Alien_Rage

RePack

fifa19

RePack

Assassins Creed: Odyssey

RePack

NEED FOR SPEED™ PAYBACK

4 сезон

9 сезон

Бесстыжие 9 сезон

Все сериалы

все сериалы на PB.wtf

RePack

FAR CRY 5
  

Роман Израэл, Esq. / Roman J. Israel, Esq. (Дэн Гилрой) [2017, драма, криминал, BD Remux 1080p] MVO [Лицензия] pb.wtf

Роман Израэл, Esq. через торрент pb.wtf

Размер: 25 GB | Добавлен: 2 года 6 мес. назад | Торрент скачан:10 раз
Скачать  

27-05-2018 11:19 Роман Израэл, Esq. Скачать торрент  

Роман Израэл, Esq. / Roman J. Israel, Esq.
Год выпуска: 2017
Страна: США
Жанр: драма, криминал
Продолжительность: 02:02:20
Перевод: Профессиональный многоголосый | Лицензия
Субтитры: Русские (forced, full), украинские (full), английские

Режиссер: Дэн Гилрой

rating

В ролях:

Дензел Вашингтон, Колин Фаррелл, Кармен Эджого, Линда Граватт, Аманда Уоррен, Хьюго Армстронг, Сэм Гилрой, Тони Плана, Дерон Хортон, Амари Читом

Описание:

История опытного адвоката с твёрдой хваткой, Романа Дж. Израэля, на которого свалилось управление крупной фирмой после того, как его босса настиг сердечный приступ. Оказавшись у власти, Израэль узнаёт о тайных делах своей компании, противоречащих его профессиональным и моральным принципам.

Качество: BD Remux 1080p
Формат: MKV

Видео: MPEG-4 AVC, 1920x1080, 24.9 Mbit/s, 23.976 fps
Аудио#1: 48 kHz, AC3, 5.1, 640 Kbps | RUS |
Аудио#2: 48 kHz, DTS-HD MA, 5.1, 3673 Kbps | Оригинал | ENG |


Релиз от:
скриншот   скриншот   скриншот   скриншот  

General
Unique ID : 179852578424710253772798150118760594947 (0x874E58BD28C146E333506BE8F5D93E03)
Complete name : C:Video111Roman.J.Israel.Esq.2017.Lic.BDREMUX.1080p.ExKinoRay.mkv
Format : Matroska
Format version : Version 4 / Version 2
File size : 25.0 GiB
Duration : 2 h 2 min
Overall bit rate mode : Variable
Overall bit rate : 29.3 Mb/s
Movie name : Roman J. Israel, Esq. 2017 from ExKinoRay
Encoded date : UTC 2018-05-27 07:39:05
Writing application : mkvmerge v22.0.0 ('At The End Of The World') 64-bit
Writing library : libebml v1.3.5 + libmatroska v1.4.8

Video
ID : 1
Format : AVC
Format/Info : Advanced Video Codec
Format profile : High@L4.1
Format settings : CABAC / 2 Ref Frames
Format settings, CABAC : Yes
Format settings, ReFrames : 2 frames
Format settings, GOP : M=1, N=10
Codec ID : V_MPEG4/ISO/AVC
Duration : 2 h 2 min
Bit rate mode : Variable
Bit rate : 24.9 Mb/s
Width : 1 920 pixels
Height : 1 080 pixels
Display aspect ratio : 16:9
Frame rate mode : Constant
Frame rate : 23.976 (24000/1001) FPS
Color space : YUV
Chroma subsampling : 4:2:0
Bit depth : 8 bits
Scan type : Progressive
Bits/(Pixel*Frame) : 0.502
Stream size : 21.3 GiB (85%)
Language : English
Default : Yes
Forced : No

Audio #1
ID : 2
Format : AC-3
Format/Info : Audio Coding 3
Codec ID : A_AC3
Duration : 2 h 2 min
Bit rate mode : Constant
Bit rate : 640 kb/s
Channel(s) : 6 channels
Channel positions : Front: L C R, Side: L R, LFE
Sampling rate : 48.0 kHz
Frame rate : 31.250 FPS (1536 SPF)
Bit depth : 16 bits
Compression mode : Lossy
Stream size : 560 MiB (2%)
Title : License
Language : Russian
Service kind : Complete Main
Default : Yes
Forced : Yes

Audio #2
ID : 3
Format : DTS
Format/Info : Digital Theater Systems
Format profile : MA / Core
Codec ID : A_DTS
Duration : 2 h 2 min
Bit rate mode : Variable / Constant
Bit rate : 3 673 kb/s / 1 509 kb/s
Channel(s) : 6 channels
Channel positions : Front: L C R, Side: L R, LFE
Sampling rate : 48.0 kHz
Frame rate : 93.750 FPS (512 SPF)
Bit depth : 24 bits
Compression mode : Lossless / Lossy
Stream size : 3.14 GiB (13%)
Title : Original
Language : English
Default : No
Forced : No

Text #1
ID : 4
Format : UTF-8
Codec ID : S_TEXT/UTF8
Codec ID/Info : UTF-8 Plain Text
Duration : 2 h 1 min
Bit rate : 2 b/s
Count of elements : 38
Stream size : 2.63 KiB (0%)
Title : Forced
Language : Russian
Default : Yes
Forced : Yes

Text #2
ID : 5
Format : UTF-8
Codec ID : S_TEXT/UTF8
Codec ID/Info : UTF-8 Plain Text
Duration : 2 h 1 min
Bit rate : 107 b/s
Count of elements : 1579
Stream size : 95.0 KiB (0%)
Title : Full
Language : Russian
Default : No
Forced : No

Text #3
ID : 6
Format : UTF-8
Codec ID : S_TEXT/UTF8
Codec ID/Info : UTF-8 Plain Text
Duration : 2 h 1 min
Bit rate : 91 b/s
Count of elements : 1578
Stream size : 81.2 KiB (0%)
Title : Full
Language : Ukrainian
Default : No
Forced : No

Text #4
ID : 7
Format : UTF-8
Codec ID : S_TEXT/UTF8
Codec ID/Info : UTF-8 Plain Text
Duration : 1 h 51 min
Bit rate : 70 b/s
Count of elements : 1517
Stream size : 57.8 KiB (0%)
Title : Full
Language : English
Default : No
Forced : No

Text #5
ID : 8
Format : UTF-8
Codec ID : S_TEXT/UTF8
Codec ID/Info : UTF-8 Plain Text
Duration : 1 h 56 min
Bit rate : 76 b/s
Count of elements : 1819
Stream size : 65.1 KiB (0%)
Title : SDH
Language : English
Default : No
Forced : No

Text #6
ID : 9
Format : UTF-8
Codec ID : S_TEXT/UTF8
Codec ID/Info : UTF-8 Plain Text
Duration : 1 h 56 min
Bit rate : 113 b/s
Count of elements : 1818
Stream size : 97.0 KiB (0%)
Title : SDH Colored
Language : English
Default : No
Forced : No

Menu
00:00:00.000 : en:Chapter 1
00:11:42.327 : en:Chapter 2
00:24:00.397 : en:Chapter 3
00:29:22.719 : en:Chapter 4
00:43:31.359 : en:Chapter 5
00:50:22.561 : en:Chapter 6
00:54:07.286 : en:Chapter 7
01:02:18.902 : en:Chapter 8
01:07:25.124 : en:Chapter 9
01:11:39.629 : en:Chapter 10
01:15:10.381 : en:Chapter 11
01:20:32.411 : en:Chapter 12
01:25:34.963 : en:Chapter 13
01:31:17.639 : en:Chapter 14
01:40:01.746 : en:Chapter 15
01:51:26.221 : en:Chapter 16

pb.wtf



Скачать Роман Израэл, Esq. через торрент http://img12.lostpic.net/2018/03/25/83c61e968e3fc0aa22a46f2e8fea09fc.jpg Скачать фильм Роман Израэл, Esq. через торрент бесплантно в хорошем качестве Описание: История опытного адвоката с твёрдой хваткой, Романа Дж. Израэля, на которого свалилось управление крупной фирмой после того, как ... 10 10 4
Торрент: Зарегистрирован [2018-05-27 11:19] · скачан: 10 раз
Статус: √ проверено
Размер: 25 GB
Как cкачать? Как скачать Роман Израэл, Esq. через торрент | qTorrent

% Раздел Тема Автор DL S | L
Ultra HD (UHD: 2K, 4K, 8K) — видео сверхвысокой чёткости [ 22.59 GB ] Роман Израэл Esq. / Roman J. Israel Esq. [2017 UHD WEBRip 2160p] [HDR] MVO [] bober100 Скачать
1 | 0
Фильмы 2017 [DVDrip, WEB-DLRip, HDrip] (DUB, MVO) [ 1.46 GB ] Роман Израэл Esq. / Roman J. Israel Esq. [2017 BDRip] MVO [] Twi7ter Скачать
1 | 0
Фильмы 2017 [DVDrip, WEB-DLRip, HDrip] (DUB, MVO) [ 3.16 GB ] Роман Израэл Esq. / Roman J. Israel Esq. [2017 BDRip-AVC] MVO [] bober100 Скачать
1 | 0
Фильмы [HD 720p, 1080p] (Хороший звук DUB, MVO) [ 5.65 GB ] Роман Израэл Esq. / Roman J. Israel Esq. [2017 BDRip 720p] MVO [] bober100 Скачать
1 | 0
Фильмы [HD 720p, 1080p] (Хороший звук DUB, MVO) [ 12.78 GB ] Роман Израэл Esq. / Roman J. Israel Esq. [2017 BDRip 1080p] MVO [] bober100 Скачать
1 | 0
Фильмы 2017 [DVDrip, WEB-DLRip, HDrip] (DUB, MVO) [ 2.18 GB ] Роман Израэл Esq. / Roman J. Israel Esq. [2017 BDRip] MVO [ BD EUR] bober100 Скачать
1 | 0
Фильмы 2017 [DVDrip, WEB-DLRip, HDrip] (DUB, MVO) [ 1.46 GB ] Роман Израэл Esq. / Roman J. Israel Esq. [2017 BDRip] MVO [ BD EUR] bober100 Скачать
2 | 0

28-11-2019 20:33  

Отключить всю рекламу на сайте

    Дорогой пользователь! Огромная просьба, поблагодарите релизера, оцените раздачу и оставьте свои комментарий, если Вы скачали Роман Израэл, Esq. через торрент бесплатно! Внесите свою лепту в развитие PiratBit!
    Комментировать посты могут только пользователи прошедшие не сложную регистрацию
    Показать сообщения:    

    Роман Израэл, Esq. через торрент
    Скачать бесплатно Роман Израэл, Esq.
    Роман Израэл, Esq. скачать торрент
    Роман Израэл, Esq. смотреть онлайн
    Cкачать фильм Роман Израэл, Esq. бесплатно
    Роман Израэл, Esq. скачать торрент в хорошем качестве
    Роман Израэл, Esq. смотреть онлайн бесплатно в хорошем качестве


    Вы не можете начинать темы
    Вы не можете отвечать на сообщения
    Вы не можете редактировать свои сообщения
    Вы не можете удалять свои сообщения
    Вы не можете голосовать в опросах
    Вы не можете прикреплять файлы к сообщениям
    Вы можете скачивать файлы