Ссылка на приватное зеркало нашего сайта всего за 1$. Внимание количество ограничено!!!

2 сезон

iTunes

1 сезон

1

iTunes

iTunes

iTunes

1 сезон

RePack

30

ИГРА 18+

pack

ВАЖНО

!!Акция!!

Alien_RageХит недели

RePack

MK11
pack

Забери бонус

RePack

jed

!!Акция!!

Alien_Rage

RePack

fifa19

RePack

Assassins Creed: Odyssey

RePack

NEED FOR SPEED™ PAYBACK

4 сезон

9 сезон

Бесстыжие 9 сезон

Все сериалы

все сериалы на PB.wtf

RePack

FAR CRY 5
  

Хождение по мукам / Сезон: 1 / Серии: 1-12 из 12 (Константин Худяков) [2017, Драма, экранизация, WEB-DLRip] pb.wtf

Хождение по мукам через торрент pb.wtf

Размер: 7.6 GB | Добавлен: 2 года 4 мес. назад | Торрент скачан:44 раза
Скачать  

27-05-2018 13:58 Хождение по мукам Скачать торрент  

Хождение по мукам
Год выпуска: 2017
Страна: Россия
Жанр: Драма, экранизация
Продолжительность: 12 x ~ 00:50:00
Субтитры: отсутствуют

Режиссер: Константин Худяков

rating

В ролях:

Юлия Снигирь, Анна Чиповская, Павел Трубинер, Леонид Бичевин, Антон Шагин, Андрей Мерзликин, Светлана Ходченкова, Алексей Колган, Александр Яценко, Евгений Стычкин, Владимир Кошевой, Александр Галибин, Сергей Колтаков, Владимир Юматов, Евгений Ткачук, Дмитрий Дюжев, Сергей Пускепалис, Андрей Чернышов, Игнатий Акрачков, Сергей Угрюмов, Нина Дворжецкая, Никита Кукушкин, Роман Курцын, Роман Мадянов, Алексей Кирсанов, Иван Кокорин, Елена Валюшкина, Юлия Полынская

Описание:

Великий роман Алексея Толстого «Хождение по мукам» повествует о переломных для России событиях 1914–1919 годов. Легендарное произведение о судьбах русской интеллигенции накануне Революции стало основой нового сериала от сценариста Елены Райской и режиссера Константина Худякова, который появится в эфире в октябре 2017 года. Санкт-Петербург, 1914 год. Город живёт «словно в ожидании рокового и страшного дня», общество жаждет перемен. В центре истории — сёстры Булавины: Катя и Даша. Обе девушки влюблены в поэта-декадента Алексея Бессонова, который меняет их мировоззрение и привычный образ жизни. Первая мировая вносит в беззаботное существование Булавиных-Смоковниковых новые смыслы и переживания. Когда война подходит к концу, кажется, счастье близко… Однако революция и гражданская война полностью меняют жизнь сестёр, их семей и всей страны. Пути героев не раз пересекаются и расходятся вновь. «Хождение по мукам» становится для них не метафорой, а реальной жизнью.

Качество: WEB-DLRip
Формат: AVI

Видео: XviD, ~ 1800 Кбит/с, 720x304
Аудио: AC3, 2 ch, 192 Кбит/с
скриншот   скриншот   скриншот   скриншот  

Общее
Полное имя : F:\Xogdenie.po.mukam.2017.WEB-DLRRip.Files-x\01.Xogdenie.po.mukam.2017.WEB-DLRRip.Files-x.avi
Формат : AVI
Формат/Информация : Audio Video Interleave
Размер файла : 650 Мбайт
Продолжительность : 51 м. 34 с.
Общий поток : 1762 Кбит/сек
Программа кодирования : VirtualDubMod 1.5.10.3 | www.virtualdub-fr.org || (build 2550/release)
Библиотека кодирования : VirtualDubMod build 2550/release

Видео
Идентификатор : 0
Формат : MPEG-4 Visual
Профиль формата : Advanced Simple@L5
Параметр BVOP формата : 1
Параметр QPel формата : Нет
Параметр GMC формата : Без точки перехода
Параметр матрицы формата : Выборочная
Идентификатор кодека : XVID
Идентификатор кодека/Подсказка : XviD
Продолжительность : 51 м. 34 с.
Битрейт : 1560 Кбит/сек
Ширина : 720 пикселей
Высота : 304 пикселя
Соотношение сторон : 2,35:1
Частота кадров : 25,000 кадров/сек
Цветовое пространство : YUV
Субдискретизация насыщенности : 4:2:0
Битовая глубина : 8 бит
Тип развёртки : Прогрессивная
Метод сжатия : С потерями
Бит/(Пиксели*Кадры) : 0.285
Размер потока : 576 Мбайт (89%)
Библиотека кодирования : XviD 73

Аудио
Идентификатор : 1
Формат : AC-3
Формат/Информация : Audio Coding 3
Расширение режима : CM (complete main)
Параметр Endianness формата : Big
Идентификатор кодека : 2000
Продолжительность : 51 м. 34 с.
Вид битрейта : Постоянный
Битрейт : 192 Кбит/сек
Каналы : 2 канала
Расположение каналов : Front: L R
Частота : 48,0 КГц
Частота кадров : 31,250 кадров/сек (1536 spf)
Метод сжатия : С потерями
Размер потока : 70,8 Мбайт (11%)
Выравнивание : Разделение по промежуткам
Продолжительность промежутка : 40 мс. (1,00 видеокадр)
Время предзагрузки промежутка : 500 мс.

pb.wtf



Скачать Хождение по мукам через торрент http://i98.fastpic.ru/big/2017/1127/c2/8039f815922cef572afbb7916943a2c2.jpg Скачать фильм Хождение по мукам через торрент бесплантно в хорошем качестве Описание: Великий роман Алексея Толстого «Хождение по мукам» повествует о переломных для России событиях 1914–1919 годов. Легендарное ... 8.2 10 5
Торрент: Зарегистрирован [2018-05-27 13:58] · скачан: 44 раз
Статус: √ проверено
Размер: 7.6 GB
Как cкачать? Как скачать Хождение по мукам через торрент | qTorrent

% Раздел Тема Автор DL S | L
Наши сериалы [ 9.41 GB ] Хождение по мукам / Сезон: 1 / Серии: 1-12 из 12 [2017 экранизация WEB-DLRip-AVC] bober100 Скачать
1 | 0

28-11-2019 20:33  

Отключить всю рекламу на сайте

    Дорогой пользователь! Огромная просьба, поблагодарите релизера, оцените раздачу и оставьте свои комментарий, если Вы скачали Хождение по мукам через торрент бесплатно! Внесите свою лепту в развитие PiratBit!
    Комментировать посты могут только пользователи прошедшие не сложную регистрацию
    Показать сообщения:    

    Хождение по мукам через торрент
    Скачать бесплатно Хождение по мукам
    Хождение по мукам скачать торрент
    Хождение по мукам смотреть онлайн
    Cкачать фильм Хождение по мукам бесплатно
    Хождение по мукам скачать торрент в хорошем качестве
    Хождение по мукам смотреть онлайн бесплатно в хорошем качестве


    Вы не можете начинать темы
    Вы не можете отвечать на сообщения
    Вы не можете редактировать свои сообщения
    Вы не можете удалять свои сообщения
    Вы не можете голосовать в опросах
    Вы не можете прикреплять файлы к сообщениям
    Вы можете скачивать файлы