Ссылка на приватное зеркало нашего сайта всего за 1$. Внимание количество ограничено!!!

2 сезон

iTunes

1 сезон

1

2 сезон

2 сезон

iTunes

1 сезон

RePack

30

Новинка

ВАЖНО

ИГРА 18+

pack

RePack

MK11
pack

Забери бонус

RePack

jed

!!Акция!!

Alien_Rage

RePack

fifa19

RePack

Assassins Creed: Odyssey

RePack

NEED FOR SPEED™ PAYBACK

4 сезон

9 сезон

Бесстыжие 9 сезон

Все сериалы

все сериалы на PB.wtf

RePack

FAR CRY 5
  

Вне времени / Timeless / Сезон: 2 / Серии: 1-10 из 10 (Нил Маршалл) [2018, Фантастика, боевик, драма, приключения, WEB-DL 720p] MVO [NewStudio] pb.wtf

Вне времени через торрент pb.wtf

Размер: 14.58 GB | Добавлен: 2 года 6 мес. назад | Торрент скачан:13 раз
Скачать  

27-05-2018 14:29 Вне времени Скачать торрент  

Вне времени / TimelessИнформация о фильме:

Название: Вне времени
Оригинальное название: Timeless
Год выпуска: 2018 \(2 сезон\)
Страна: США / MiddKid Productions, Kripke Enterprises, Davis Entertainment
Жанр: Фантастика, боевик, драма, приключения
Продолжительность: ~ 00:45:00
Перевод: Профессиональный многоголосый |
Субтитры: Русские
Примечание: Присутствует реклама!

Режиссер: Нил Маршалл

rating

В ролях:

Клаудия Дурмит, Мэтт Фрюэр, Джордан Гардинер, Брекен Ханке, Сакина Джэффри, Хиро Канагава, Тревор Лернер

Описание:

Сюжет повествует о команде из трёх человек, путешествующих по времени в поисках могущественного гада, который вознамерился переписать историю человечества. Если трио не успеет сработаться и сорвать преступный план, миру, естественно, грозит катастрофа.



Информация о файле:

Качество: WEB-DL 720p
Формат: AVI

Видео: ~4000 kbps, 1280x718 (16:9), 23.976 fps
Аудио#1 RUS: AC3, 48 KHz, 6 ch, 384 kbps
Аудио#2 ENG: AC3, 48 KHz, 6 ch, 384 kbps

Общее
Уникальный идентификатор : 173993667662200749330866960829548251561 (0x82E5F622CBAF2379304537DE906EC9A9)
Полное имя : F:\Timeless (Season 02) 720\Timeless.s02e01.WEBDL.720p.NewStudio.TV.mkv
Формат : Matroska
Версия формата : Version 4 / Version 2
Размер файла : 1,43 Гбайт
Продолжительность : 42 м. 29 с.
Общий поток : 4825 Кбит/сек
Дата кодирования : UTC 2018-03-19 17:21:13
Программа кодирования : mkvmerge v20.0.0 ('I Am The Sun') 64-bit
Библиотека кодирования : libebml v1.3.5 + libmatroska v1.4.8

Видео
Идентификатор : 1
Формат : AVC
Формат/Информация : Advanced Video Codec
Профиль формата : High@L3.1
Параметр CABAC формата : Нет
Параметр RefFrames формата : 2 кадра
Идентификатор кодека : V_MPEG4/ISO/AVC
Продолжительность : 42 м. 29 с.
Битрейт : 3961 Кбит/сек
Ширина : 1280 пикселей
Высота : 718 пикселей
Соотношение сторон : 16:9
Режим частоты кадров : Постоянный
Частота кадров : 23,976 (24000/1001) кадра/сек
Цветовое пространство : YUV
Субдискретизация насыщенности : 4:2:0
Битовая глубина : 8 бит
Тип развёртки : Прогрессивная
Бит/(Пиксели*Кадры) : 0.180
Размер потока : 1,18 Гбайт (82%)
Язык : English
Default : Да
Forced : Нет
Цветовой диапазон : Limited
Основные цвета : BT.709
Характеристики трансфера : BT.709
Коэффициенты матрицы : BT.709

Аудио #1
Идентификатор : 2
Формат : AC-3
Формат/Информация : Audio Coding 3
Расширение режима : CM (complete main)
Параметр Endianness формата : Big
Идентификатор кодека : A_AC3
Продолжительность : 42 м. 29 с.
Вид битрейта : Постоянный
Битрейт : 384 Кбит/сек
Каналы : 6 каналов
Расположение каналов : Front: L C R, Side: L R, LFE
Частота : 48,0 КГц
Частота кадров : 31,250 кадров/сек (1536 spf)
Метод сжатия : С потерями
Задержка видео : -42 мс.
Размер потока : 117 Мбайт (8%)
Заголовок : NewStudio.TV
Язык : Russian
Default : Да
Forced : Нет

Аудио #2
Идентификатор : 3
Формат : AC-3
Формат/Информация : Audio Coding 3
Расширение режима : CM (complete main)
Параметр Endianness формата : Big
Идентификатор кодека : A_AC3
Продолжительность : 42 м. 29 с.
Вид битрейта : Постоянный
Битрейт : 384 Кбит/сек
Каналы : 6 каналов
Расположение каналов : Front: L C R, Side: L R, LFE
Частота : 48,0 КГц
Частота кадров : 31,250 кадров/сек (1536 spf)
Метод сжатия : С потерями
Задержка видео : -42 мс.
Размер потока : 117 Мбайт (8%)
Язык : English
Default : Нет
Forced : Нет

Текст
Идентификатор : 4
Формат : ASS
Идентификатор кодека : S_TEXT/ASS
Идентификатор кодека/Информация : Advanced Sub Station Alpha
Метод сжатия : Без потерь
Заголовок : Forced
Язык : Russian
Default : Да
Forced : Да

pb.wtf



Скачать Вне времени через торрент http://i100.fastpic.ru/big/2018/0223/b9/aa3ac3d38fea52cbf09adb710b6da7b9.png Скачать фильм Вне времени через торрент бесплантно в хорошем качестве Описание: Сюжет повествует о команде из трёх человек, путешествующих по времени в поисках могущественного гада, который вознамерился ... 7 10 3
Info! Серебряная раздача, засчитывается только 50% скачанного.
Торрент: Зарегистрирован [2018-05-27 14:29] · скачан: 13 раз
Статус: √ проверено
Размер: 14.58 GB
Как cкачать? Как скачать Вне времени через торрент | qTorrent

% Раздел Тема Автор DL S | L
Зарубежные сериалы [ 30.84 GB ] Вне времени / Timeless / Сезон: 2 / Серии: 1-12 из 12 [2018 WEB-DL 1080p] MVO [LostFilm] bober100 Скачать
1 | 0
Зарубежные сериалы [ 28.99 GB ] Вне времени / Timeless / Сезон: 2 / Серии: 1-12 из 12 [2018 WEB-DL 1080p] MVO [Jaskier] bober100 Скачать
1 | 0
Зарубежные сериалы [ 3.91 GB ] Вне времени / Timeless / Сезон: 2 / Серии 1-10 из 10 [2018 WEB-DLRip] MVO [Lostfilm] GEKADOL Скачать
1 | 0
Зарубежные сериалы [ 5.42 GB ] Вне времени / Timeless / Сезон: 2 / Серии: 1-10 из 10 [2018 WEB-DLRip] MVO [NewStudio] bober100 Скачать
1 | 0

28-11-2019 20:33  

Отключить всю рекламу на сайте

    Дорогой пользователь! Огромная просьба, поблагодарите релизера, оцените раздачу и оставьте свои комментарий, если Вы скачали Вне времени через торрент бесплатно! Внесите свою лепту в развитие PiratBit!
    Комментировать посты могут только пользователи прошедшие не сложную регистрацию
    Показать сообщения:    

    Вне времени через торрент
    Скачать бесплатно Вне времени
    Вне времени скачать торрент
    Вне времени смотреть онлайн
    Cкачать фильм Вне времени бесплатно
    Вне времени скачать торрент в хорошем качестве
    Вне времени смотреть онлайн бесплатно в хорошем качестве


    Вы не можете начинать темы
    Вы не можете отвечать на сообщения
    Вы не можете редактировать свои сообщения
    Вы не можете удалять свои сообщения
    Вы не можете голосовать в опросах
    Вы не можете прикреплять файлы к сообщениям
    Вы можете скачивать файлы