Ссылка на приватное зеркало всего за 1$. Внимание количество ограничено!!!

OK

1+1

iTunes

мы

OK

1

WEB-DLRip

Джокер

Пифагор

Ведьмак / The Witcher сериал

iTunes

ПШазам

ОК

Оно 2

iTunes

30
pack

Вам бонус

ВАЖНО

!!Акция!!

Alien_RageХит недели

RePack

Resident Evil 21

ИГРА 18+

pack

RePack

jed

RePack

fifa19

RePack

Assassins Creed: Odyssey

RePack

NEED FOR SPEED™ PAYBACK

4 сезон

9 сезон

Бесстыжие 9 сезон

Все сериалы

все сериалы на PB.wtf

RePack

FAR CRY 5
  

Дэрроу и Дэрроу 2 / Darrow & Darrow 2 (Мэл Дэмски) [2018, комедия, WEBRip 720p] MVO ["Синема УС"] pb.wtf

Дэрроу и Дэрроу 2 через торрент pb.wtf

Размер: 2.89 GB | Добавлен: 1 год 8 мес. назад | Торрент скачан:23 раза
Скачать  

27-05-2018 15:50 Дэрроу и Дэрроу 2 Скачать торрент  

Дэрроу и Дэрроу 2 / Darrow & Darrow 2Год выпуска: 2018
Страна: Канада
Жанр: комедия
Продолжительность: 01:25:00
Перевод: Любительский (многоголосый) | "Синема УС"
Субтитры: отсутствуют

Режиссер: Мэл Дэмски

rating

В ролях:

Кимберли Уильямс, Томас Кавана, Уэнди Мэлик, Лайла Фицджералд, Барклай Хоуп, Брэнди Александр, Антонио Кайонни, Винсент Коул, МакКензи Портер

Описание:

Простое предложение юридических консультаций превращается в самую большую проблему юридической карьеры Клэр Дарроу, когда ее новый парень, окружной прокурор Майлз Страсберг, представляет ее своей младшей сестре, Фиби. Певица, которая только что закончила свой первый альбом, Фиби опасается, что она, возможно, подписала свои права на своего бывшего продюсера, который угрожает уничтожить записи. Когда продюсер найден мертвым в своей студии, полиция находит доказательства и мотивы, чтобы арестовать Фиби. Хотя Клэр никогда не пробовала дело об убийстве, Майлз не может себе представить, чтобы доверять судьбе его любимой сестры кому-либо еще. Работая бок о бок с Майлсом, Клэр собирается раскрыть правду за преступлением.

Качество: WEBRip 720p
Формат: MKV

Видео: h.264, 4 486 kb/s, 1280x720
Аудио#1: Русский, (AC3, 2 ch, 384 Кбит/с)
скриншот  скриншот  скриншот  

Общее
Уникальный идентификатор : 179383037808829179924905495502614477938 (0x86F3EA99650A3E8EAC7915E766DCBC72)
Полное имя : F:\Darrow_and_Darrow_In_the_Key_of_Murder.2o18.P. HDTV.72Op_KOSHARA.mkv
Формат : Matroska
Версия формата : Version 2
Размер файла : 2,89 Гбайт
Продолжительность : 1 ч. 25 м.
Режим общего битрейта : Переменный
Общий поток : 4872 Кбит/сек
Дата кодирования : UTC 2018-05-24 04:46:56
Программа кодирования : mkvmerge v8.3.0 ('Over the Horizon') 64bit
Библиотека кодирования : libebml v1.3.1 + libmatroska v1.4.2

Видео
Идентификатор : 1
Формат : AVC
Формат/Информация : Advanced Video Codec
Профиль формата : High@L4.1
Параметр CABAC формата : Да
Параметр RefFrames формата : 4 кадра
Идентификатор кодека : V_MPEG4/ISO/AVC
Продолжительность : 1 ч. 25 м.
Вид битрейта : Переменный
Битрейт : 4486 Кбит/сек
Максимальный битрейт : 5000 Кбит/сек
Ширина : 1280 пикселей
Высота : 720 пикселей
Соотношение сторон : 16:9
Режим частоты кадров : Постоянный
Частота кадров : 23,976 (24000/1001) кадра/сек
Стандарт вещания : Component
Цветовое пространство : YUV
Субдискретизация насыщенности : 4:2:0
Битовая глубина : 8 бит
Тип развёртки : Прогрессивная
Бит/(Пиксели*Кадры) : 0.199
Размер потока : 2,61 Гбайт (90%)
Default : Да
Forced : Нет
Цветовой диапазон : Limited
Основные цвета : BT.709
Характеристики трансфера : BT.709
Коэффициенты матрицы : BT.709

Аудио
Идентификатор : 2
Формат : AC-3
Формат/Информация : Audio Coding 3
Расширение режима : CM (complete main)
Параметр Endianness формата : Big
Идентификатор кодека : A_AC3
Продолжительность : 1 ч. 25 м.
Вид битрейта : Постоянный
Битрейт : 384 Кбит/сек
Каналы : 2 канала
Расположение каналов : Front: L R
Частота : 48,0 КГц
Частота кадров : 31,250 кадров/сек (1536 spf)
Метод сжатия : С потерями
Размер потока : 233 Мбайт (8%)
Default : Да
Forced : Нет

pb.wtf



Скачать Дэрроу и Дэрроу 2 через торрент http://img12.lostpic.net/2018/05/27/1836db82576aea52443ea8ac1d5cca7b.jpg Скачать фильм Дэрроу и Дэрроу 2 через торрент бесплантно в хорошем качестве Описание: Простое предложение юридических консультаций превращается в самую большую проблему юридической карьеры Клэр Дарроу, когда ее ... 7 10 3
Торрент: Зарегистрирован [2018-05-27 15:50] · скачан: 23 раз
Статус: T временная
Размер: 2.89 GB
Как cкачать? Как скачать Дэрроу и Дэрроу 2 через торрент | qTorrent

28-11-2019 20:33  

Отключить всю рекламу на сайте

    Дорогой пользователь! Огромная просьба, поблагодарите релизера, оцените раздачу и оставьте свои комментарий, если Вы скачали Дэрроу и Дэрроу 2 через торрент бесплатно! Внесите свою лепту в развитие PiratBit!
    Комментировать посты могут только пользователи прошедшие не сложную регистрацию
    Показать сообщения:    

    Дэрроу и Дэрроу 2 через торрент
    Скачать бесплатно Дэрроу и Дэрроу 2
    Дэрроу и Дэрроу 2 скачать торрент
    Дэрроу и Дэрроу 2 смотреть онлайн
    Cкачать фильм Дэрроу и Дэрроу 2 бесплатно
    Дэрроу и Дэрроу 2 скачать торрент в хорошем качестве
    Дэрроу и Дэрроу 2 смотреть онлайн бесплатно в хорошем качестве


    Вы не можете начинать темы
    Вы не можете отвечать на сообщения
    Вы не можете редактировать свои сообщения
    Вы не можете удалять свои сообщения
    Вы не можете голосовать в опросах
    Вы не можете прикреплять файлы к сообщениям
    Вы можете скачивать файлы