Ссылка на приватное зеркало нашего сайта всего за 1$. Внимание количество ограничено!!!

2 сезон

iTunes

1 сезон

1

2 сезон

2 сезон

iTunes

1 сезон

RePack

30

Ultimate

ВАЖНО

ИГРА 18+

pack

RePack

MK11
pack

Забери бонус

RePack

jed

!!Акция!!

Alien_Rage

RePack

fifa19

RePack

Assassins Creed: Odyssey

RePack

NEED FOR SPEED™ PAYBACK

4 сезон

9 сезон

Бесстыжие 9 сезон

Все сериалы

все сериалы на PB.wtf

RePack

FAR CRY 5
  

Горы и камни / The Ottoman Lieutenant (Джозеф Рубин) [2017, драма, военный, BDRemux 1080p] Дубляж [Пифагор] pb.wtf

Горы и камни через торрент pb.wtf

Размер: 24.48 GB | Добавлен: 2 года 5 мес. назад | Торрент скачан:9 раз
Скачать  

27-05-2018 17:02 Горы и камни Скачать торрент  

Горы и камни / The Ottoman Lieutenant
««In a land on the brink of war the most dangerous place to be is in love»»

Год выпуска: 2017
Страна: Турция, США
Жанр: драма, военный

Продолжительность: 01:50:35
Перевод: Дубляж - [студия Пифагор]
Режиссер: Джозеф Рубин
В ролях:

Михил Хаушман, Гера Хилмарсдоттир, Джош Хартнетт (Jude), Бен Кингсли, Халук Бильгинер, Аффиф Бен Бадра (Christapor), Пол Баррет (Mr. Rowe), Джесика Тернер (Mrs. Rowe), Питер Хоскин (Mr. Clemson), Сельчук Ёнтем (Melih Pasha), Элишка Слански (Aghavni), Хасан Сай (Ahmet)
Описание:
История любви между идеалистичной медсестрой-американкой и турецким офицером на фоне Первой мировой войны.
Рейтинг:
rating
MPAA: R - Лицам до 17 лет обязательно присутствие взрослого
Качество: BDRemux 1080p
Формат: MKV
Видео: AVC, 1920x1080 (16:9), 29167 kbps, 23,976 fps, 0,587 bpp
Аудио №1: русский / AC3 / 5.1 / 48 kHz / 384 kbps / |Дубляж|
Аудио №2: английский / DTS / 5.1 / 48 kHz / 1509 kbps / 24 bit
Навигация по главам: есть
Релиз от: funtden
General
Unique ID : 21762919421902308939047391460225409615 (0x105F62C50BEF55B7FD93A2BD926B624F)
Complete name : F:\The.Ottoman.Lieutenant.2017.BDREMUX 1080p.funtden.mkv
Format : Matroska
Format version : Version 4 / Version 2
File size : 24.5 GiB
Duration : 1 h 50 min
Overall bit rate mode : Variable
Overall bit rate : 31.7 Mb/s
Movie name : The.Ottoman.Lieutenant.2017.BDREMUX 1080p.funtden
Encoded date : UTC 2018-05-25 12:40:35
Writing application : mkvmerge v22.0.0 ('At The End Of The World') 64-bit
Writing library : libebml v1.3.5 + libmatroska v1.4.8
Cover : Yes
Attachments : small_cover.jpg / small_cover_land.jpg / cover.jpg / cover_land.jpg

Video
ID : 1
Format : AVC
Format/Info : Advanced Video Codec
Format profile : High@L4.1
Format settings, CABAC : Yes
Format settings, ReFrames : 4 frames
Format settings, GOP : M=3, N=12
Codec ID : V_MPEG4/ISO/AVC
Duration : 1 h 50 min
Bit rate mode : Variable
Bit rate : 29.2 Mb/s
Maximum bit rate : 33.0 Mb/s
Width : 1 920 pixels
Height : 1 080 pixels
Display aspect ratio : 16:9
Frame rate mode : Constant
Frame rate : 23.976 (24000/1001) FPS
Color space : YUV
Chroma subsampling : 4:2:0
Bit depth : 8 bits
Scan type : Progressive
Bits/(Pixel*Frame) : 0.587
Stream size : 22.5 GiB (92%)
Title : The.Ottoman.Lieutenant.2017.BDREMUX 1080p.funtden
Language : English
Default : No
Forced : No

Audio #1
ID : 2
Format : AC-3
Format/Info : Audio Coding 3
Mode extension : CM (complete main)
Format settings, Endianness : Big
Codec ID : A_AC3
Duration : 1 h 50 min
Bit rate mode : Constant
Bit rate : 384 kb/s
Channel(s) : 6 channels
Channel positions : Front: L C R, Side: L R, LFE
Sampling rate : 48.0 kHz
Frame rate : 31.250 FPS (1536 spf)
Compression mode : Lossy
Stream size : 304 MiB (1%)
Title : Профессиональный (дублированный) студия Пифагор
Language : Russian
Default : Yes
Forced : Yes

Audio #2
ID : 3
Format : DTS
Format/Info : Digital Theater Systems
Mode : 16
Format settings, Endianness : Big
Codec ID : A_DTS
Duration : 1 h 50 min
Bit rate mode : Constant
Bit rate : 1 509 kb/s
Channel(s) : 6 channels
Channel positions : Front: L C R, Side: L R, LFE
Sampling rate : 48.0 kHz
Frame rate : 93.750 FPS (512 spf)
Bit depth : 24 bits
Compression mode : Lossy
Stream size : 1.17 GiB (5%)
Title : Original
Language : English
Default : No
Forced : No

Menu
00:00:00.000 : en:Chapter 01
00:09:08.089 : en:Chapter 02
00:18:03.373 : en:Chapter 03
00:23:44.381 : en:Chapter 04
00:32:11.387 : en:Chapter 05
00:44:42.554 : en:Chapter 06
00:52:37.279 : en:Chapter 07
00:59:14.592 : en:Chapter 08
01:08:24.058 : en:Chapter 09
01:18:09.685 : en:Chapter 10
01:26:48.870 : en:Chapter 11
01:34:48.808 : en:Chapter 12
01:43:37.377 : en:Chapter 13
pb.wtf



Скачать Горы и камни через торрент http://i105.fastpic.ru/big/2018/0527/8a/d1bf92ddea52da1c5de7da97b700318a.jpg Скачать фильм Горы и камни через торрент бесплантно в хорошем качестве Описание: История любви между идеалистичной медсестрой-американкой и турецким офицером на фоне Первой мировой войны.Рейтинг: MPAA: R - ... 10 10 1
Info! Золотая раздача, скачанное не засчитывается.
Торрент: Зарегистрирован [2018-05-27 17:02] · скачан: 9 раз
Статус: √ проверено
Размер: 24.48 GB
Как cкачать? Как скачать Горы и камни через торрент | qTorrent

% Раздел Тема Автор DL S | L
R.G. Resident & PiratVoice - Фильмы, Видео [ 1.73 GB ] Горы и камни / The Ottoman Lieutenant [2017 военный BDRip-AVC от R.G. Resident] [Пифагор] -Lexx- Скачать
1 | 0
R.G. Resident & PiratVoice - Фильмы, Видео [ 1.46 GB ] Горы и камни / The Ottoman Lieutenant [2017 военный BDRip от R.G. Resident] [Пифагор] -Lexx- Скачать
1 | 0
T Фильмы [HD 720p, 1080p] (Хороший звук DUB, MVO) [ 7.93 GB ] Горы и камни / The Ottoman Lieutenant [2017 военный BDRip 1080p] [Пифагор] -Lexx- Скачать
1 | 0

28-11-2019 20:33  

Отключить всю рекламу на сайте

    Дорогой пользователь! Огромная просьба, поблагодарите релизера, оцените раздачу и оставьте свои комментарий, если Вы скачали Горы и камни через торрент бесплатно! Внесите свою лепту в развитие PiratBit!
    Комментировать посты могут только пользователи прошедшие не сложную регистрацию
    Показать сообщения:    

    Горы и камни через торрент
    Скачать бесплатно Горы и камни
    Горы и камни скачать торрент
    Горы и камни смотреть онлайн
    Cкачать фильм Горы и камни бесплатно
    Горы и камни скачать торрент в хорошем качестве
    Горы и камни смотреть онлайн бесплатно в хорошем качестве


    Вы не можете начинать темы
    Вы не можете отвечать на сообщения
    Вы не можете редактировать свои сообщения
    Вы не можете удалять свои сообщения
    Вы не можете голосовать в опросах
    Вы не можете прикреплять файлы к сообщениям
    Вы можете скачивать файлы