Ссылка на приватное зеркало всего за 1$. Внимание количество ограничено!!!

OK

1+1

iTunes

мы

OK

1

WEB-DLRip

Джокер

Пифагор

Ведьмак / The Witcher сериал

Лицензия

ПШазам

ОК

Оно 2

iTunes

30
pack

Вам бонус

ВАЖНО

!!Акция!!

Alien_RageХит недели

RePack

Resident Evil 21

ИГРА 18+

pack

RePack

jed

!!Акция!!

Alien_Rage

RePack

fifa19

RePack

Assassins Creed: Odyssey

RePack

NEED FOR SPEED™ PAYBACK

4 сезон

9 сезон

Бесстыжие 9 сезон

Все сериалы

все сериалы на PB.wtf

RePack

FAR CRY 5
  

Привычка / Habit (Семен Халлиган) [2017, ужасы, WEB-DL 720p] MVO ["Синема УС"] pb.wtf

Привычка через торрент pb.wtf

Размер: 3.37 GB | Добавлен: 1 год 7 мес. назад | Торрент скачан:41 раз
Скачать  

27-05-2018 17:52 Привычка Скачать торрент  

Привычка / HabitГод выпуска: 2017
Страна: Великобритания
Жанр: ужасы
Продолжительность: 01:38:34
Перевод: Любительский (многоголосый) | "Синема УС"
Субтитры: отсутствуют

Режиссер: Семен Халлиган

rating

В ролях:

Джессика Барден, Роксанна Паллетт, Уильям Эш, Эллиотт Джеймс Лангридж, Луис Эмерик, Сэлли Карман, Эммануэль Игодаро, Эндрю Эллис, Джоэнн Митчелл

Описание:

Манчестер, наши дни. Майкл все дни напролет проводит либо в пабе, либо на бирже труда. Совершенно случайно он знакомится с Ли, которая потом знакомит его со своим дядей Йеном, который устраивает его вышибалой в свой массажный салон. Став однажды свидетелем ужасной смерти одного из клиентов, Майкл всё чаще начинает видеть кровавые флешбэки той ночи. По каким-то загадочным причинам этот неведомый ночной мир манит и привлекает его. Однако, когда парень узнает, что на самом деле таит закулисье салона "Седьмое небо", он понимает, что его жизнь уже никогда не будет прежней.

Качество: WEB-DL 720p
Формат: MKV

Видео: h.264, 4 507 kb/s, 1280x534
Аудио#1: Русский (AC3, 2 ch, 384 Кбит/с)
скриншот  скриншот  скриншот  

Общее
Уникальный идентификатор : 200951891372510881640239287517614972694 (0x972DED2EF1A3073E937604AAFB401F16)
Полное имя : F:\Habit.2017.P.WEB-DL.72Op_KOSHARA.mkv
Формат : Matroska
Версия формата : Version 2
Размер файла : 3,37 Гбайт
Продолжительность : 1 ч. 38 м.
Режим общего битрейта : Переменный
Общий поток : 4892 Кбит/сек
Дата кодирования : UTC 2018-05-16 12:43:57
Программа кодирования : mkvmerge v8.3.0 ('Over the Horizon') 64bit
Библиотека кодирования : libebml v1.3.1 + libmatroska v1.4.2

Видео
Идентификатор : 1
Формат : AVC
Формат/Информация : Advanced Video Codec
Профиль формата : High@L4.1
Параметр CABAC формата : Да
Параметр RefFrames формата : 4 кадра
Идентификатор кодека : V_MPEG4/ISO/AVC
Продолжительность : 1 ч. 38 м.
Вид битрейта : Переменный
Битрейт : 4509 Кбит/сек
Максимальный битрейт : 5000 Кбит/сек
Ширина : 1280 пикселей
Высота : 534 пикселя
Соотношение сторон : 2,40:1
Режим частоты кадров : Постоянный
Частота кадров : 23,976 (24000/1001) кадра/сек
Стандарт вещания : Component
Цветовое пространство : YUV
Субдискретизация насыщенности : 4:2:0
Битовая глубина : 8 бит
Тип развёртки : Прогрессивная
Бит/(Пиксели*Кадры) : 0.269
Размер потока : 3,04 Гбайт (90%)
Default : Да
Forced : Нет
Цветовой диапазон : Limited
Основные цвета : BT.709
Характеристики трансфера : BT.709
Коэффициенты матрицы : BT.709

Аудио
Идентификатор : 2
Формат : AC-3
Формат/Информация : Audio Coding 3
Расширение режима : CM (complete main)
Параметр Endianness формата : Big
Идентификатор кодека : A_AC3
Продолжительность : 1 ч. 38 м.
Вид битрейта : Постоянный
Битрейт : 384 Кбит/сек
Каналы : 2 канала
Расположение каналов : Front: L R
Частота : 48,0 КГц
Частота кадров : 31,250 кадров/сек (1536 spf)
Метод сжатия : С потерями
Размер потока : 271 Мбайт (8%)
Default : Да
Forced : Нет

pb.wtf



Скачать Привычка через торрент http://img12.lostpic.net/2018/05/27/a6d71a5adea26d217ade99db80b375a8.jpg Скачать фильм Привычка через торрент бесплантно в хорошем качестве Описание: Манчестер, наши дни. Майкл все дни напролет проводит либо в пабе, либо на бирже труда. Совершенно случайно он знакомится с Ли, ... 8.2 10 5
Торрент: Зарегистрирован [2018-05-27 17:52] · скачан: 41 раз
Статус: T временная
Размер: 3.37 GB
Как cкачать? Как скачать Привычка через торрент | qTorrent

% Раздел Тема Автор DL S | L
T Фильмы (мультфильмы) cо спонсором показа (Новинки AVI/MKV) [ 1.37 GB ] Земля устойчивых привычек / The Land of Steady Habits [2018 WEB-DLRip] [MVO] killermax2013 Скачать
1 | 0
T Фильмы (мультфильмы) cо спонсором показа (Новинки AVI/MKV) [ 3.4 GB ] Земля устойчивых привычек / The Land of Steady Habits [2018 WEB-DL 720p] MVO ["Синема УС"] bober100 Скачать
1 | 0
T Фильмы (мультфильмы) cо спонсором показа (Новинки AVI/MKV) [ 1.37 GB ] Земля устойчивых привычек / The Land of Steady Habits [2018 WEB-DLRip] MVO ["Синема УС"] bober100 Скачать
1 | 0
T Фильмы (мультфильмы) cо спонсором показа (Новинки AVI/MKV) [ 1.37 GB ] Привычка / Habit [2017 WEB-DLRip] MVO ["Синема УС"] bober100 Скачать
1 | 0

28-11-2019 20:33  

Отключить всю рекламу на сайте

    Дорогой пользователь! Огромная просьба, поблагодарите релизера, оцените раздачу и оставьте свои комментарий, если Вы скачали Привычка через торрент бесплатно! Внесите свою лепту в развитие PiratBit!
    Комментировать посты могут только пользователи прошедшие не сложную регистрацию
    Показать сообщения:    

    Привычка через торрент
    Скачать бесплатно Привычка
    Привычка скачать торрент
    Привычка смотреть онлайн
    Cкачать фильм Привычка бесплатно
    Привычка скачать торрент в хорошем качестве
    Привычка смотреть онлайн бесплатно в хорошем качестве


    Вы не можете начинать темы
    Вы не можете отвечать на сообщения
    Вы не можете редактировать свои сообщения
    Вы не можете удалять свои сообщения
    Вы не можете голосовать в опросах
    Вы не можете прикреплять файлы к сообщениям
    Вы можете скачивать файлы