Ссылка на приватное зеркало всего за 1$. Внимание количество ограничено!!!

OK

1+1

iTunes

мы

OK

1

WEB-DLRip

Джокер

Пифагор

Ведьмак / The Witcher сериал

Лицензия

ПШазам

ОК

Оно 2

iTunes

30
pack

Вам бонус

ВАЖНО

!!Акция!!

Alien_RageХит недели

RePack

Resident Evil 21

ИГРА 18+

pack

RePack

jed

RePack

fifa19

RePack

Assassins Creed: Odyssey

RePack

NEED FOR SPEED™ PAYBACK

4 сезон

9 сезон

Бесстыжие 9 сезон

Все сериалы

все сериалы на PB.wtf

RePack

FAR CRY 5
  

Я мечтаю на другом языке / Sueño en otro idioma (Эрнесто Контрерас) [2017, Фэнтези, драма, WEB-DL 720p] MVO ["Синема УС"] pb.wtf

Я мечтаю на другом языке через торрент pb.wtf

Размер: 3.41 GB | Добавлен: 1 год 7 мес. назад | Торрент скачан:46 раз
Скачать  

27-05-2018 19:18 Я мечтаю на другом языке Скачать торрент  

Я мечтаю на другом языке / Sueño en otro idiomaГод выпуска: 2017
Страна: Мексика, Нидерланды
Жанр: Фэнтези, драма
Продолжительность: 01:42:55
Перевод: Любительский (многоголосый) | "Синема УС"
Субтитры: отсутствуют

Режиссер: Эрнесто Контрерас

rating

В ролях:

Фернандо Альварес Ребейл, Хосе Мануэль Понселис, Элихио Мелендес, Фатима Молина, Хуан Пабло Де Сантьяго, Норма Анхелика, Моника Мигель, Эктор Хименес

Описание:

Когда язык умирает, уникальное видение мира теряется навсегда.

Качество: WEB-DL 720p
Формат: MKV

Видео: h.264, 4 357 kb/s, 1280x536
Аудио#1: Русский, (AC3, 2 ch, 384 Кбит/с)
скриншот  скриншот  скриншот  

Общее
Уникальный идентификатор : 193414807334361521230109931464181302756 (0x9182563FF36EFE31B8D1C86A80A245E4)
Полное имя : F:\I.Dream.In.Another.Language.2017.P.WEB_DL.72Op_KOSHARA.mkv
Формат : Matroska
Версия формата : Version 2
Размер файла : 3,41 Гбайт
Продолжительность : 1 ч. 42 м.
Режим общего битрейта : Переменный
Общий поток : 4743 Кбит/сек
Дата кодирования : UTC 2018-05-24 03:32:23
Программа кодирования : mkvmerge v8.3.0 ('Over the Horizon') 64bit
Библиотека кодирования : libebml v1.3.1 + libmatroska v1.4.2

Видео
Идентификатор : 1
Формат : AVC
Формат/Информация : Advanced Video Codec
Профиль формата : High@L4.1
Параметр CABAC формата : Да
Параметр RefFrames формата : 4 кадра
Идентификатор кодека : V_MPEG4/ISO/AVC
Продолжительность : 1 ч. 42 м.
Вид битрейта : Переменный
Битрейт : 4357 Кбит/сек
Максимальный битрейт : 5000 Кбит/сек
Ширина : 1280 пикселей
Высота : 536 пикселей
Соотношение сторон : 2,40:1
Режим частоты кадров : Постоянный
Частота кадров : 23,976 (24000/1001) кадра/сек
Стандарт вещания : Component
Цветовое пространство : YUV
Субдискретизация насыщенности : 4:2:0
Битовая глубина : 8 бит
Тип развёртки : Прогрессивная
Бит/(Пиксели*Кадры) : 0.259
Размер потока : 3,07 Гбайт (90%)
Default : Да
Forced : Нет
Цветовой диапазон : Limited
Основные цвета : BT.709
Характеристики трансфера : BT.709
Коэффициенты матрицы : BT.709

Аудио
Идентификатор : 2
Формат : AC-3
Формат/Информация : Audio Coding 3
Расширение режима : CM (complete main)
Параметр Endianness формата : Big
Идентификатор кодека : A_AC3
Продолжительность : 1 ч. 42 м.
Вид битрейта : Постоянный
Битрейт : 384 Кбит/сек
Каналы : 2 канала
Расположение каналов : Front: L R
Частота : 48,0 КГц
Частота кадров : 31,250 кадров/сек (1536 spf)
Метод сжатия : С потерями
Размер потока : 283 Мбайт (8%)
Default : Да
Forced : Нет

pb.wtf



Скачать Я мечтаю на другом языке через торрент http://img12.lostpic.net/2018/05/27/cafd1d6128d4f12302152d26cbc20ea7.jpg Скачать фильм Я мечтаю на другом языке через торрент бесплантно в хорошем качестве Описание: Когда язык умирает, уникальное видение мира теряется ... 8.2 10 5
Торрент: Зарегистрирован [2018-05-27 19:18] · скачан: 46 раз
Статус: T временная
Размер: 3.41 GB
Как cкачать? Как скачать Я мечтаю на другом языке через торрент | qTorrent

% Раздел Тема Автор DL S | L
T Фильмы (мультфильмы) cо спонсором показа (Новинки AVI/MKV) [ 1.46 GB ] Я мечтаю на другом языке / Sueño en otro idioma [2017 WEB-DLRip] MVO ["Синема УС"] bober100 Скачать
1 | 0

28-11-2019 20:33  

Отключить всю рекламу на сайте

    Дорогой пользователь! Огромная просьба, поблагодарите релизера, оцените раздачу и оставьте свои комментарий, если Вы скачали Я мечтаю на другом языке через торрент бесплатно! Внесите свою лепту в развитие PiratBit!
    Комментировать посты могут только пользователи прошедшие не сложную регистрацию
    Показать сообщения:    

    Я мечтаю на другом языке через торрент
    Скачать бесплатно Я мечтаю на другом языке
    Я мечтаю на другом языке скачать торрент
    Я мечтаю на другом языке смотреть онлайн
    Cкачать фильм Я мечтаю на другом языке бесплатно
    Я мечтаю на другом языке скачать торрент в хорошем качестве
    Я мечтаю на другом языке смотреть онлайн бесплатно в хорошем качестве


    Вы не можете начинать темы
    Вы не можете отвечать на сообщения
    Вы не можете редактировать свои сообщения
    Вы не можете удалять свои сообщения
    Вы не можете голосовать в опросах
    Вы не можете прикреплять файлы к сообщениям
    Вы можете скачивать файлы