Ссылка на приватное зеркало нашего сайта всего за 1$. Внимание количество ограничено!!!

2 сезон

iTunes

1 сезон

1

2 сезон

2 сезон

iTunes

1 сезон

RePack

30

Новинка

ВАЖНО

ИГРА 18+

pack

RePack

MK11
pack

Забери бонус

RePack

jed

!!Акция!!

Alien_Rage

RePack

fifa19

RePack

Assassins Creed: Odyssey

RePack

NEED FOR SPEED™ PAYBACK

4 сезон

9 сезон

Бесстыжие 9 сезон

Все сериалы

все сериалы на PB.wtf

RePack

FAR CRY 5
  

Редкая бабочка / The Butterfly Tree (Присцилла Камерон) [2017, драма, семейный, BD Remux 1080p] MVO [iTunes] pb.wtf

Редкая бабочка через торрент pb.wtf

Размер: 20.37 GB | Добавлен: 2 года 6 мес. назад | Торрент скачан:10 раз
Скачать  

28-05-2018 01:06 Редкая бабочка Скачать торрент  

Редкая бабочка / The Butterfly Tree
Год выпуска: 2017
Страна: Австралия
Жанр: драма, семейный
Продолжительность: 01:36:04
Перевод: Профессиональный (многоголосый) | iTunes
Субтитры: отсутствуют

Режиссер: Присцилла Камерон

rating

В ролях:

Мелисса Джордж, Ивен Лесли, Эд Оксенбульд, Софи Лоу, Элла Джаз Макроканис, Лорен Диллон, Паула Назарски, Стив Нейшн, Лайам Хоп Йек Доддс, Тэмми Сара Линде

Описание:

Одинокий отец и его сын-подросток влюбляются в новую соседку, Эвелин, королеву бурлеска.

Качество: BD Remux 1080p
Формат: MKV

Видео: MPEG-4 AVC, 1920x1080, 26.8 Mbit/s, 23.976 fps
Аудио#1: 48 kHz, AC3, 5.1, 384 Kbps | iTunes | RUS |
Аудио#2: 48 kHz, DTS-HD MA, 5.1, 3072 Kbps | Оригинал | ENG |
скриншот  

Релиз от:
скриншот   скриншот   скриншот   скриншот   скриншот  

General
Unique ID : 114551342227587984479185501363843424234 (0x562DC938620BBC17525C0CB13F58DFEA)
Complete name : C:Video111The.Butterfly.Tree.2017.BDREMUX.1080p.ExKinoRay.mkv
Format : Matroska
Format version : Version 4 / Version 2
File size : 20.4 GiB
Duration : 1 h 36 min
Overall bit rate mode : Variable
Overall bit rate : 30.4 Mb/s
Movie name : The Butterfly Tree 2017 from ExKinoRay
Encoded date : UTC 2018-05-27 20:53:30
Writing application : mkvmerge v22.0.0 ('At The End Of The World') 64-bit
Writing library : libebml v1.3.5 + libmatroska v1.4.8

Video
ID : 1
Format : AVC
Format/Info : Advanced Video Codec
Format profile : High@L4.1
Format settings : CABAC / 4 Ref Frames
Format settings, CABAC : Yes
Format settings, ReFrames : 4 frames
Codec ID : V_MPEG4/ISO/AVC
Duration : 1 h 36 min
Bit rate mode : Variable
Bit rate : 26.8 Mb/s
Maximum bit rate : 38.0 Mb/s
Width : 1 920 pixels
Height : 1 080 pixels
Display aspect ratio : 16:9
Frame rate mode : Constant
Frame rate : 23.976 (24000/1001) FPS
Color space : YUV
Chroma subsampling : 4:2:0
Bit depth : 8 bits
Scan type : Progressive
Bits/(Pixel*Frame) : 0.540
Stream size : 18.0 GiB (88%)
Language : English
Default : Yes
Forced : No

Audio #1
ID : 2
Format : AC-3
Format/Info : Audio Coding 3
Codec ID : A_AC3
Duration : 1 h 36 min
Bit rate mode : Constant
Bit rate : 384 kb/s
Channel(s) : 6 channels
Channel positions : Front: L C R, Side: L R, LFE
Sampling rate : 48.0 kHz
Frame rate : 31.250 FPS (1536 SPF)
Bit depth : 16 bits
Compression mode : Lossy
Stream size : 264 MiB (1%)
Title : iTunes
Language : Russian
Service kind : Complete Main
Default : Yes
Forced : Yes

Audio #2
ID : 3
Format : DTS
Format/Info : Digital Theater Systems
Format profile : MA / Core
Codec ID : A_DTS
Duration : 1 h 36 min
Bit rate mode : Variable / Constant
Bit rate : 3 072 kb/s / 1 509 kb/s
Channel(s) : 6 channels
Channel positions : Front: L C R, Side: L R, LFE
Sampling rate : 48.0 kHz
Frame rate : 93.750 FPS (512 SPF)
Bit depth : 24 bits
Compression mode : Lossless / Lossy
Stream size : 2.09 GiB (10%)
Title : Original
Language : English
Default : No
Forced : No

Menu
00:00:00.000 : en:00:00:00.000
00:08:08.655 : en:00:08:08.655
00:17:10.154 : en:00:17:10.154
00:27:10.170 : en:00:27:10.170
00:36:00.200 : en:00:36:00.200
00:47:40.107 : en:00:47:40.107
00:57:01.418 : en:00:57:01.418
01:05:22.836 : en:01:05:22.836
01:16:23.370 : en:01:16:23.370
01:23:32.174 : en:01:23:32.174

pb.wtf



Скачать Редкая бабочка через торрент http://pic1.kartinco.top/images/11/x76d4.jpg Скачать фильм Редкая бабочка через торрент бесплантно в хорошем качестве Описание: Одинокий отец и его сын-подросток влюбляются в новую соседку, Эвелин, королеву ... 10 10 3
Info! Серебряная раздача, засчитывается только 50% скачанного.
Торрент: Зарегистрирован [2018-05-28 01:06] · скачан: 10 раз
Статус: √ проверено
Размер: 20.37 GB
Как cкачать? Как скачать Редкая бабочка через торрент | qTorrent

% Раздел Тема Автор DL S | L
Фильмы 2017 [DVDrip, WEB-DLRip, HDrip] (DUB, MVO) [ 1.42 GB ] Редкая бабочка / The Butterfly Tree [2017 BDRip] MVO Twi7ter Скачать
1 | 0
Фильмы 2017 [DVDrip, WEB-DLRip, HDrip] (DUB, MVO) [ 707 MB ] Редкая бабочка / The Butterfly Tree [2017 HDRip многоголосый закадровый ""] coc900 Скачать
1 | 0
Фильмы [HD 720p, 1080p] (Хороший звук DUB, MVO) [ 4.38 GB ] Редкая бабочка / The Butterfly Tree [2017 BDRip 720p] MVO bober100 Скачать
1 | 0
Фильмы [HD 720p, 1080p] (Хороший звук DUB, MVO) [ 8.94 GB ] Редкая бабочка / The Butterfly Tree [2017 BDRip 1080p] MVO bober100 Скачать
1 | 0
Фильмы 2017 [DVDrip, WEB-DLRip, HDrip] (DUB, MVO) [ 1.42 GB ] Редкая бабочка / The Butterfly Tree [2017 BDRip] MVO bober100 Скачать
1 | 0

28-11-2019 20:33  

Отключить всю рекламу на сайте

    Дорогой пользователь! Огромная просьба, поблагодарите релизера, оцените раздачу и оставьте свои комментарий, если Вы скачали Редкая бабочка через торрент бесплатно! Внесите свою лепту в развитие PiratBit!
    Комментировать посты могут только пользователи прошедшие не сложную регистрацию
    Показать сообщения:    

    Редкая бабочка через торрент
    Скачать бесплатно Редкая бабочка
    Редкая бабочка скачать торрент
    Редкая бабочка смотреть онлайн
    Cкачать фильм Редкая бабочка бесплатно
    Редкая бабочка скачать торрент в хорошем качестве
    Редкая бабочка смотреть онлайн бесплатно в хорошем качестве


    Вы не можете начинать темы
    Вы не можете отвечать на сообщения
    Вы не можете редактировать свои сообщения
    Вы не можете удалять свои сообщения
    Вы не можете голосовать в опросах
    Вы не можете прикреплять файлы к сообщениям
    Вы можете скачивать файлы