Ссылка на приватное зеркало нашего сайта всего за 1$. Внимание количество ограничено!!!

2 сезон

iTunes

1 сезон

1

iTunes

iTunes

iTunes

1 сезон

RePack

30

ИГРА 18+

pack

ВАЖНО

!!Акция!!

Alien_RageХит недели

RePack

MK11
pack

Забери бонус

RePack

jed

!!Акция!!

Alien_Rage

RePack

fifa19

RePack

Assassins Creed: Odyssey

RePack

NEED FOR SPEED™ PAYBACK

4 сезон

9 сезон

Бесстыжие 9 сезон

Все сериалы

все сериалы на PB.wtf

RePack

FAR CRY 5
  

Сфинксы северных ворот / Серии: 1-4 из 4 (Олег Штром) [2018, Детектив, приключения, WEB-DL 1080p] pb.wtf

Сфинксы северных ворот через торрент pb.wtf

Размер: 3.71 GB | Добавлен: 2 года 4 мес. назад | Торрент скачан:87 раз
Скачать  

28-05-2018 09:24 Сфинксы северных ворот Скачать торрент  

Сфинксы северных воротГод выпуска: 2018
Страна: Россия
Жанр: Детектив, приключения
Продолжительность: ~ 00:44:00
Субтитры: отсутствуют

Режиссер: Олег Штром



В ролях:

Елена Великанова, Дмитрий Бедерин, Любовь Германова, Валерий Сторожик, Максим Щёголев, Сергей Подольный, Евгений Данчевский, Александр Никитин

Описание:

Судьба сталкивает Грекова с давним соперником – Павлом Роговым, которого он много лет назад засадил за решётку. К тому же когда-то любимая девушка Рогова стала женой Грекова… Выйдя из тюрьмы, Павел вновь встречается с Верой. Он утверждает, что не совершал преступления, за которое отсидел срок, и подозревает, что Греков подтасовал материалы дела. И вот теперь Павел убит, все улики указывают на Грекова, а сам он не может вспомнить ничего о событиях того рокового вечера… Саше предстоит узнать много нового о прошлом своего любимого мужчины, чтобы снять с него страшные обвинения. И ещё кровавая семейная тайна тесно переплетена с судьбой шедевра Ван Дейка.

Качество: WEB-DL 1080p
Формат: MKV

Видео: AVC/H.264, 1920x1080 (16:9), ~2785 Kbps
Аудио: AC3, 2 ch, 192 Кбит/с
скриншот   скриншот   скриншот   скриншот  

Общее
Уникальный идентификатор : 59158863440066605016639023770133852246 (0x2C8195290AF73556BC287C114E3BF056)
Полное имя : D:Сфинксы северных ворот (2018).by.АлехаndrСерия 1.mkv
Формат : Matroska
Версия формата : Version 4 / Version 2
Размер файла : 987 Мбайт
Продолжительность : 45 м. 27 с.
Общий поток : 3037 Кбит/сек
Программа кодирования : Lavf57.71.100
Библиотека кодирования : Lavf57.71.100
ErrorDetectionType : Per level 1

Видео
Идентификатор : 1
Формат : AVC
Формат/Информация : Advanced Video Codec
Профиль формата : High@L4
Настройки формата : CABAC / 2 Ref Frames
Параметр CABAC формата : Да
Параметр RefFrames формата : 2 кадра
Идентификатор кодека : V_MPEG4/ISO/AVC
Продолжительность : 45 м. 27 с.
Битрейт : 2785 Кбит/сек
Ширина : 1920 пикселей
Высота : 1080 пикселей
Соотношение сторон : 16:9
Режим частоты кадров : Постоянный
Частота кадров : 25,000 кадров/сек
Цветовое пространство : YUV
Субдискретизация насыщенности : 4:2:0
Битовая глубина : 8 бит
Тип развёртки : Прогрессивная
Бит/(Пиксели*Кадры) : 0.054
Размер потока : 905 Мбайт (92%)
Default : Да
Forced : Нет
Цветовой диапазон : Limited
Основные цвета : BT.709
Характеристики трансфера : BT.709
Коэффициенты матрицы : BT.709

Аудио
Идентификатор : 2
Формат : AC-3
Формат/Информация : Audio Coding 3
Идентификатор кодека : A_AC3
Продолжительность : 45 м. 27 с.
Вид битрейта : Постоянный
Битрейт : 192 Кбит/сек
Каналы : 2 канала
Расположение каналов : Front: L R
Частота : 48,0 КГц
Частота кадров : 31,250 кадров/сек (1536 SPF)
Битовая глубина : 16 бит
Метод сжатия : С потерями
Размер потока : 62,4 Мбайт (6%)
ServiceKind : Complete Main
Default : Да
Forced : Нет

pb.wtf



Скачать Сфинксы северных ворот через торрент http://img12.lostpic.net/2018/05/26/187e2767ce8c36d70efda173740cf309.th.jpg Скачать фильм Сфинксы северных ворот через торрент бесплантно в хорошем качестве Описание: Судьба сталкивает Грекова с давним соперником – Павлом Роговым, которого он много лет назад засадил за решётку. К тому же ... 8 10 4
Торрент: Зарегистрирован [2018-05-28 09:24] · скачан: 87 раз
Статус: √ проверено
Размер: 3.71 GB
Как cкачать? Как скачать Сфинксы северных ворот через торрент | qTorrent

% Раздел Тема Автор DL S | L
Наши сериалы [ 2.15 GB ] Сфинксы северных ворот / Серии: 1-4 из 4 [2018 WEB-DLRip] bober100 Скачать
1 | 0
Наши сериалы [ 2.26 GB ] Сфинксы северных ворот / Серии: 1-4 из 4 [2018 WEB-DLRip-AVC] bober100 Скачать
1 | 0
Наши сериалы [ 2.07 GB ] Сфинксы северных ворот / Серии: 1-4 из 4 [2018экранизация SATRip-AVC] aleksan55 Скачать
1 | 0
Наши сериалы [ 2.4 GB ] Сфинксы северных ворот / Серия 1-4 из 4 / [2018 SATRip] oleg8 Скачать
1 | 0

28-11-2019 20:33  

Отключить всю рекламу на сайте

    Дорогой пользователь! Огромная просьба, поблагодарите релизера, оцените раздачу и оставьте свои комментарий, если Вы скачали Сфинксы северных ворот через торрент бесплатно! Внесите свою лепту в развитие PiratBit!
    Комментировать посты могут только пользователи прошедшие не сложную регистрацию
    Показать сообщения:    

    Сфинксы северных ворот через торрент
    Скачать бесплатно Сфинксы северных ворот
    Сфинксы северных ворот скачать торрент
    Сфинксы северных ворот смотреть онлайн
    Cкачать фильм Сфинксы северных ворот бесплатно
    Сфинксы северных ворот скачать торрент в хорошем качестве
    Сфинксы северных ворот смотреть онлайн бесплатно в хорошем качестве


    Вы не можете начинать темы
    Вы не можете отвечать на сообщения
    Вы не можете редактировать свои сообщения
    Вы не можете удалять свои сообщения
    Вы не можете голосовать в опросах
    Вы не можете прикреплять файлы к сообщениям
    Вы можете скачивать файлы