Ссылка на приватное зеркало нашего сайта всего за 1$. Внимание количество ограничено!!!

2 сезон

iTunes

1 сезон

1

2 сезон

2 сезон

iTunes

1 сезон

RePack

30

Ultimate

ВАЖНО

ИГРА 18+

pack

RePack

MK11
pack

Забери бонус

RePack

jed

!!Акция!!

Alien_Rage

RePack

fifa19

RePack

Assassins Creed: Odyssey

RePack

NEED FOR SPEED™ PAYBACK

4 сезон

9 сезон

Бесстыжие 9 сезон

Все сериалы

все сериалы на PB.wtf

RePack

FAR CRY 5
  

Ограбление в ураган / The Hurricane Heist (Роб Коэн) [2018, боевик, триллер, BD Remux 1080p] DUB [iTunes] pb.wtf

Ограбление в ураган через торрент pb.wtf

Размер: 28.36 GB | Добавлен: 2 года 5 мес. назад | Торрент скачан:67 раз
Скачать  

28-05-2018 10:03 Ограбление в ураган Скачать торрент  

Ограбление в ураган / The Hurricane Heist
Год выпуска: 2018
Страна: США
Жанр: боевик, триллер
Продолжительность: 01:43:05
Перевод: Дублированный | iTunes
Субтитры: Английские

Режиссер: Роб Коэн

rating

В ролях:

Тоби Кеббелл, Мэгги Грэйс, Райан Квантен, Ралф Айнесон, Мелисса Болона, Бен Кросс, Джэми Эндрю Катлер, Кристиан Райан Контрерас, Эд Бирч

Описание:

На побережье Америки стремительно надвигается ураган. Тем временем банда воров планирует идеальное ограбление: украсть 600 миллионов долларов из казначейства США, воспользовавшись стихийным бедствием как прикрытием. Но когда разбушевавшийся ураган усиливается до смертельно опасной Категории 5, тщательно продуманный план ограбления века трещит по швам...

Качество: BD Remux 1080p
Формат: MKV

Видео: MPEG-4 AVC, 1920x1080, 34.3 Мbit/s, 23.976 fps
Аудио#1: 48 kHz, AC3, 5.1, 384 Kbps | iTunes | RUS |
Аудио#2: 48 kHz, TrueHD, 7.1, 4002 Kbps | Оригинал | ENG |
Аудио#3: 48 kHz, AC3, 5.1, 640 Kbps | Оригинал | ENG |
скриншот   скриншот   скриншот   скриншот   скриншот  

General
Unique ID : 62493119449947715908326257557701879103 (0x2F03BCAC784D47911B8FE442E2AB653F)
Complete name : C:Video111The.Hurricane.Heist.2018.BDREMUX.1080p.ExKinoRay.mkv
Format : Matroska
Format version : Version 4 / Version 2
File size : 28.4 GiB
Duration : 1 h 43 min
Overall bit rate mode : Variable
Overall bit rate : 39.4 Mb/s
Movie name : The Hurricane Heist 2018 from ExKinoRay
Encoded date : UTC 2018-05-28 09:43:56
Writing application : mkvmerge v22.0.0 ('At The End Of The World') 64-bit
Writing library : libebml v1.3.5 + libmatroska v1.4.8

Video
ID : 1
Format : AVC
Format/Info : Advanced Video Codec
Format profile : High@L4.1
Format settings : CABAC / 4 Ref Frames
Format settings, CABAC : Yes
Format settings, ReFrames : 4 frames
Codec ID : V_MPEG4/ISO/AVC
Duration : 1 h 43 min
Bit rate mode : Variable
Bit rate : 34.3 Mb/s
Maximum bit rate : 36.8 Mb/s
Width : 1 920 pixels
Height : 1 080 pixels
Display aspect ratio : 16:9
Frame rate mode : Constant
Frame rate : 23.976 (24000/1001) FPS
Color space : YUV
Chroma subsampling : 4:2:0
Bit depth : 8 bits
Scan type : Progressive
Bits/(Pixel*Frame) : 0.690
Stream size : 24.7 GiB (87%)
Language : English
Default : Yes
Forced : No

Audio #1
ID : 2
Format : AC-3
Format/Info : Audio Coding 3
Codec ID : A_AC3
Duration : 1 h 43 min
Bit rate mode : Constant
Bit rate : 384 kb/s
Channel(s) : 6 channels
Channel positions : Front: L C R, Side: L R, LFE
Sampling rate : 48.0 kHz
Frame rate : 31.250 FPS (1536 SPF)
Bit depth : 16 bits
Compression mode : Lossy
Stream size : 283 MiB (1%)
Title : iTunes
Language : Russian
Service kind : Complete Main
Default : Yes
Forced : Yes

Audio #2
ID : 3
Format : TrueHD
Format profile : TrueHD+Atmos / TrueHD
Codec ID : A_TRUEHD
Duration : 1 h 43 min
Bit rate mode : Variable
Bit rate : 4 002 kb/s
Maximum bit rate : 5 466 kb/s
Channel(s) : Object Based / 8 channels
Channel positions : Object Based / Front: L C R, Side: L R, Back: L R, LFE
Sampling rate : / 48.0 kHz
Frame rate : 1 200.000 FPS (40 SPF)
Compression mode : Lossless
Stream size : 2.88 GiB (10%)
Title : Original
Language : English
Default : No
Forced : No

Audio #3
ID : 4
Format : AC-3
Format/Info : Audio Coding 3
Codec ID : A_AC3
Duration : 1 h 43 min
Bit rate mode : Constant
Bit rate : 640 kb/s
Channel(s) : 6 channels
Channel positions : Front: L C R, Side: L R, LFE
Sampling rate : 48.0 kHz
Frame rate : 31.250 FPS (1536 SPF)
Bit depth : 16 bits
Compression mode : Lossy
Stream size : 472 MiB (2%)
Language : English
Service kind : Complete Main
Default : No
Forced : No

Text
ID : 5
Format : UTF-8
Codec ID : S_TEXT/UTF8
Codec ID/Info : UTF-8 Plain Text
Duration : 1 h 33 min
Bit rate : 51 b/s
Count of elements : 994
Stream size : 35.2 KiB (0%)
Language : English
Default : No
Forced : No

Menu
00:00:00.000 : en:00:00:00.000
00:05:41.258 : en:00:05:41.258
00:13:15.253 : en:00:13:15.253
00:20:49.456 : en:00:20:49.456
00:25:48.046 : en:00:25:48.046
00:30:08.974 : en:00:30:08.974
00:35:00.890 : en:00:35:00.890
00:40:40.813 : en:00:40:40.813
00:45:48.162 : en:00:45:48.162
00:52:34.359 : en:00:52:34.359
01:00:22.244 : en:01:00:22.244
01:06:49.881 : en:01:06:49.881
01:11:02.341 : en:01:11:02.341
01:17:43.951 : en:01:17:43.951
01:25:06.351 : en:01:25:06.351
01:32:38.595 : en:01:32:38.595

pb.wtf



Скачать Ограбление в ураган через торрент http://i104.fastpic.ru/big/2018/0418/01/69e67d3fb1a6c06a87e9195878d3ad01.jpg Скачать фильм Ограбление в ураган через торрент бесплантно в хорошем качестве Описание: На побережье Америки стремительно надвигается ураган. Тем временем банда воров планирует идеальное ограбление: украсть 600 ... 10 10 4
Торрент: Зарегистрирован [2018-05-28 10:03] · скачан: 67 раз
Статус: √ проверено
Размер: 28.36 GB
Как cкачать? Как скачать Ограбление в ураган через торрент | qTorrent

% Раздел Тема Автор DL S | L
Фильмы [HD 720p, 1080p] (Хороший звук DUB, MVO) [ 9.37 GB ] Ограбление в ураган / The Hurricane Heist [2018 BDRip 1080p] bober100 Скачать
1 | 0
Ultra HD (UHD: 2K, 4K, 8K) — видео сверхвысокой чёткости [ 26.69 GB ] Ограбление в ураган / The Hurricane Heist [2018 UHD BDRip 2160p] sheker187 Скачать
1 | 0
Ultra HD (UHD: 2K, 4K, 8K) — видео сверхвысокой чёткости [ 60.39 GB ] Ограбление в ураган / The Hurricane Heist [2018 UHD BDRemux 2160p] bober100 Скачать
1 | 0
Фильмы 2018 [DVDrip, WEB-DLRip, HDrip] (DUB, MVO) [ 1.41 GB ] Ограбление в ураган / The Hurricane Heist [2018 BDRip] - Twi7ter Скачать
2 | 0
Фильмы [HD 720p, 1080p] (Хороший звук DUB, MVO) [ 3.91 GB ] Ограбление в ураган / The Hurricane Heist [2018 BDRip 1080p HEVC ] Мичман37 Скачать
2 | 0
Фильмы 2018 [DVDrip, WEB-DLRip, HDrip] (DUB, MVO) [ 2.06 GB ] Ограбление в ураган / The Hurricane Heist [2018 BDRip-AVC] - ExKinoRay Enigma2010 Скачать
1 | 0
Фильмы 2018 [DVDrip, WEB-DLRip, HDrip] (DUB, MVO) [ 1.92 GB ] Ограбление в ураган / The Hurricane Heist [2018 WEB-DLRip-AVC] - ExKinoRay Enigma2010 Скачать
1 | 0

28-11-2019 20:33  

Отключить всю рекламу на сайте

    Дорогой пользователь! Огромная просьба, поблагодарите релизера, оцените раздачу и оставьте свои комментарий, если Вы скачали Ограбление в ураган через торрент бесплатно! Внесите свою лепту в развитие PiratBit!
    Комментировать посты могут только пользователи прошедшие не сложную регистрацию
    Показать сообщения:    

    Ограбление в ураган через торрент
    Скачать бесплатно Ограбление в ураган
    Ограбление в ураган скачать торрент
    Ограбление в ураган смотреть онлайн
    Cкачать фильм Ограбление в ураган бесплатно
    Ограбление в ураган скачать торрент в хорошем качестве
    Ограбление в ураган смотреть онлайн бесплатно в хорошем качестве


    Вы не можете начинать темы
    Вы не можете отвечать на сообщения
    Вы не можете редактировать свои сообщения
    Вы не можете удалять свои сообщения
    Вы не можете голосовать в опросах
    Вы не можете прикреплять файлы к сообщениям
    Вы можете скачивать файлы