Ссылка на приватное зеркало нашего сайта всего за 1$. Внимание количество ограничено!!!

2 сезон

iTunes

1 сезон

1

iTunes

iTunes

iTunes

1 сезон

RePack

30

ИГРА 18+

pack

ВАЖНО

!!Акция!!

Alien_RageХит недели

RePack

MK11
pack

Забери бонус

RePack

jed

!!Акция!!

Alien_Rage

RePack

fifa19

RePack

Assassins Creed: Odyssey

RePack

NEED FOR SPEED™ PAYBACK

4 сезон

9 сезон

Бесстыжие 9 сезон

Все сериалы

все сериалы на PB.wtf

RePack

FAR CRY 5
  

Гурзуф / Сезон: 1 / Серии: 1-8 из 8 (Дмитрий Константинов) [2018, Детектив, драма, криминал, SATRip] pb.wtf

Гурзуф через торрент pb.wtf

Размер: 4.9 GB | Добавлен: 2 года 4 мес. назад | Торрент скачан:193 раза
Скачать  

28-05-2018 13:10 Гурзуф Скачать торрент  

ГурзуфГод выпуска: 2018
Страна: Россия
Жанр: Детектив, драма, криминал
Продолжительность: ~ 00:48:00
Субтитры: отсутствуют

Режиссер: Дмитрий Константинов



В ролях:

Пётр Фёдоров, Евгений Антропов, Дарья Урсуляк, Павел Чинарёв, Мария Смольникова, Виталия Корниенко, Александр Бухаров, Тимур Бадалбейли, Константин Чепурин, Елена Нестерова, Алексей Комашко, Дмитрий Поднозов, Ольга Ергина, Вячеслав Чепурченко, Юлия Харьковская, Шамхал Хачатурян

Описание:

1965 год. Родион Стоцкий работает в Гурзуфе, который за три года службы успел превратить в преуспевающий, спокойный город. С событий первой части, которые описаны в сериале «Город», прошло пять лет. Курорт, в котором Стоцкий служит начальником милиции, обходят стороной даже пляжные мошенники. Однако в начале очередного курортного сезона внезапно происходит сразу несколько преступлений, которые Стоцкий связывает между собой: в городе расстреливают такси с криминальными авторитетами, грабят грузовик с зарплатой сотрудников «Артека» и грабят пассажиров поезда «Москва — Симферополь». Расследование, в котором главному герою помогает его давний друг Тарас Зайцев, приводит Стоцкого к совершенно неожиданным результатам.

Качество: SATRip
Формат: AVI

Видео: XviD, ~ 1700 Кбит/с, 704x448
Аудио: MP3, 2 ch, 128 Кбит/с
скриншот   скриншот   скриншот  

Общее
Полное имя : F:\Gurzuf.XviD.SATRip.25Kuzmich\Gurzuf.e01.XviD.SATRip.25Kuzmich.avi
Формат : AVI
Формат/Информация : Audio Video Interleave
Размер файла : 722 Мбайт
Продолжительность : 52 м. 1 с.
Общий поток : 1940 Кбит/сек

Видео
Идентификатор : 0
Формат : MPEG-4 Visual
Профиль формата : Advanced Simple@L5
Параметр BVOP формата : 2
Параметр QPel формата : Нет
Параметр GMC формата : Без точки перехода
Параметр матрицы формата : Default (H.263)
Идентификатор кодека : XVID
Идентификатор кодека/Подсказка : XviD
Продолжительность : 52 м. 1 с.
Битрейт : 1798 Кбит/сек
Ширина : 704 пикселя
Высота : 448 пикселей
Соотношение сторон : 16:10
Частота кадров : 25,000 кадров/сек
Цветовое пространство : YUV
Субдискретизация насыщенности : 4:2:0
Битовая глубина : 8 бит
Тип развёртки : Прогрессивная
Метод сжатия : С потерями
Бит/(Пиксели*Кадры) : 0.228
Размер потока : 669 Мбайт (93%)
Библиотека кодирования : XviD 1.2.1 (UTC 2008-12-04)

Аудио
Идентификатор : 1
Формат : MPEG Audio
Версия формата : Version 1
Профиль формата : Layer 3
Режим : Joint stereo
Расширение режима : MS Stereo
Идентификатор кодека : 55
Идентификатор кодека/Подсказка : MP3
Продолжительность : 52 м. 1 с.
Вид битрейта : Постоянный
Битрейт : 128 Кбит/сек
Каналы : 2 канала
Частота : 48,0 КГц
Метод сжатия : С потерями
Размер потока : 47,6 Мбайт (7%)
Выравнивание : Соединение по промежуткам
Продолжительность промежутка : 24 мс. (0,60 видеокадр)
Библиотека кодирования : LAME3.99r
Настройки программы : -m j -V 4 -q 9 -lowpass 17 -b 128

Внимание! Раздача ведётся путём добавления новых серий; при каждом добавлении создаётся новый торрент. Чтобы начать докачку новой серии, пользователям необходимо сделать следующее:
(1) остановить скачивание,
(2) удалить старый торрент у себя из клиента (старые серии удалять не надо),
(3) скачать новый торрент и запустить его у себя в клиенте вместо старого, при этом указать клиенту путь в старую папку куда и должно происходить скачивание новых серий.
Ваш клиент при этом должен произвести хеширование (проверку) старой папки (если не производит сам - помогите ему сделать это), и будет докачивать только те серии которых у вас ещё нет. Старые серии при этом не удаляются, а продолжают раздаваться!
Eсли вы уже удалили старые серии, то предотвратить повторную закачку старых серий можно, отжав галочку в соответствующих местах при запуске нового торрента. По возможности, желательно не удалять старые серии как можно дольше чтобы релизёр не столько продолжал раздавать старые серии, а смог сконцентрироваться на новых.
pb.wtf



Скачать Гурзуф через торрент http://img12.lostpic.net/2018/05/28/23f70866e81b4add30ec5ae899c6dc67.jpg Скачать фильм Гурзуф через торрент бесплантно в хорошем качестве Описание: 1965 год. Родион Стоцкий работает в Гурзуфе, который за три года службы успел превратить в преуспевающий, спокойный город. С ... 9.3 10 14
Торрент: Зарегистрирован [2018-05-31 13:33] · скачан: 193 раз
Статус: √ проверено
Размер: 4.9 GB
Как cкачать? Как скачать Гурзуф через торрент | qTorrent

% Раздел Тема Автор DL S | L
Наши сериалы [ 4.69 GB ] Гурзуф / Сезон: 1 / Серии: 1-8 из 8 [2018 WEB-DLRip] bober100 Скачать
1 | 0
Наши сериалы [ 5.81 GB ] Гурзуф / Сезон: 1 / Серии: 1-8 из 8 [2018 HDTVRip-AVC] bober100 Скачать
1 | 0
Наши сериалы [ 9.77 GB ] Гурзуф / Сезон: 1 / Серии: 1-8 из 8 [2018 HDTVRip 720p] bober100 Скачать
1 | 0
Наши сериалы [ 8.9 GB ] Гурзуф / Сезон: 1 / Серии: 1-8 из 8 [2018 WEB-DL 720p] bober100 Скачать
1 | 0
Наши сериалы [ 5.3 GB ] Гурзуф / Сезон: 1 / Серии: 1-8 из 8 [2018 HDTVRip] bober100 Скачать
1 | 0
Наши сериалы [ 16 GB ] Гурзуф / Сезон: 1 / Серии: 1-8 из 8 [2018 HDTV 1080i] bober100 Скачать
1 | 0

28-11-2019 20:33  

Отключить всю рекламу на сайте

    Дорогой пользователь! Огромная просьба, поблагодарите релизера, оцените раздачу и оставьте свои комментарий, если Вы скачали Гурзуф через торрент бесплатно! Внесите свою лепту в развитие PiratBit!
    Комментировать посты могут только пользователи прошедшие не сложную регистрацию
    Показать сообщения:    

    Гурзуф через торрент
    Скачать бесплатно Гурзуф
    Гурзуф скачать торрент
    Гурзуф смотреть онлайн
    Cкачать фильм Гурзуф бесплатно
    Гурзуф скачать торрент в хорошем качестве
    Гурзуф смотреть онлайн бесплатно в хорошем качестве


    Вы не можете начинать темы
    Вы не можете отвечать на сообщения
    Вы не можете редактировать свои сообщения
    Вы не можете удалять свои сообщения
    Вы не можете голосовать в опросах
    Вы не можете прикреплять файлы к сообщениям
    Вы можете скачивать файлы