Ссылка на приватное зеркало нашего сайта всего за 1$. Внимание количество ограничено!!!

2 сезон

iTunes

1 сезон

1

2 сезон

2 сезон

iTunes

1 сезон

RePack

30

Новинка

ВАЖНО

ИГРА 18+

pack

RePack

MK11
pack

Забери бонус

RePack

jed

!!Акция!!

Alien_Rage

RePack

fifa19

RePack

Assassins Creed: Odyssey

RePack

NEED FOR SPEED™ PAYBACK

4 сезон

9 сезон

Бесстыжие 9 сезон

Все сериалы

все сериалы на PB.wtf

RePack

FAR CRY 5
  

Слепая зона / Слепое пятно / Blindspot / Сезон: 3 / Серии: 1-22 из 22 (Марк Пеллингтон) [2017, драма, WEB-DLRip] MVO [NewStudio] pb.wtf

Слепая зона через торрент pb.wtf

Размер: 11.82 GB | Добавлен: 2 года 6 мес. назад | Торрент скачан:31 раз
Скачать  

28-05-2018 16:56 Слепая зона Скачать торрент  

Слепая зона / Слепое пятно / Blindspot
Год выпуска: 2017
Страна: США
Жанр: драма
Продолжительность: ~ 00:45:00
Перевод: Профессиональный многоголосый |
Субтитры: отсутствуют

Режиссер: Марк Пеллингтон

rating

В ролях:

Джейми Александер, Салливан Степлтон, Одри Эспарза, Роб Браун, Марко Кака, Орелин Гайя, Карл Ли, Ноэль Рамос, Юн-И Чанг, Саманта Риверз Коул

Описание:

В центре сюжета находится потерявшая свою память девушка, которая оказывается в центре расследования после того, как смогла выбраться из брезентового мешка в самом центе Нью-Йорк Сити на Таймс Сквер. Не имея ни малейшего представления о том, кто она такая, девушка не знает, что обозначают многочисленные загадочные татуировки, которыми покрыто все ее тело. Когда выясняется, что татуировки являются чем-то вроде дорожной карты, к делу подключается ФБР.

Качество: WEB-DLRip
Формат: AVI

Видео: ~ 1450 Кбит/с, 720x400
Аудио#1: Русский (MP3, 2 ch, 128 Кбит/с)
Аудио#2: английский (MP3, 2 ch, 128 Кбит/с)

Общее
Полное имя : F:\Blindspot (Season 03) Newstudio\Blindspot.s03e01.WEBDLRip.NewStudio.TV.avi
Формат : AVI
Формат/Информация : Audio Video Interleave
Размер файла : 550 Мбайт
Продолжительность : 43 м. 46 с.
Общий поток : 1757 Кбит/сек
Программа кодирования : VirtualDubMod 1.5.10.2 (build 2540/release)
Библиотека кодирования : VirtualDubMod build 2540/release

Видео
Идентификатор : 0
Формат : MPEG-4 Visual
Профиль формата : Advanced Simple@L5
Параметр BVOP формата : 2
Параметр QPel формата : Да
Параметр GMC формата : Без точки перехода
Параметр матрицы формата : Default (MPEG)
Режим смешивания : Сжатый битовый поток
Идентификатор кодека : XVID
Идентификатор кодека/Подсказка : XviD
Продолжительность : 43 м. 46 с.
Битрейт : 1487 Кбит/сек
Ширина : 720 пикселей
Высота : 400 пикселей
Соотношение сторон : 16:9
Частота кадров : 23,976 (23976/1000) кадра/сек
Цветовое пространство : YUV
Субдискретизация насыщенности : 4:2:0
Битовая глубина : 8 бит
Тип развёртки : Прогрессивная
Метод сжатия : С потерями
Бит/(Пиксели*Кадры) : 0.215
Размер потока : 465 Мбайт (85%)
Библиотека кодирования : XviD 73

Аудио #1
Идентификатор : 1
Формат : MPEG Audio
Версия формата : Version 1
Профиль формата : Layer 3
Режим : Joint stereo
Расширение режима : MS Stereo
Идентификатор кодека : 55
Идентификатор кодека/Подсказка : MP3
Продолжительность : 43 м. 46 с.
Вид битрейта : Постоянный
Битрейт : 128 Кбит/сек
Каналы : 2 канала
Частота : 48,0 КГц
Метод сжатия : С потерями
Размер потока : 40,1 Мбайт (7%)
Выравнивание : Соединение по промежуткам
Продолжительность промежутка : 42 мс. (1,00 видеокадр)
Время предзагрузки промежутка : 504 мс.

Аудио #2
Идентификатор : 2
Формат : MPEG Audio
Версия формата : Version 1
Профиль формата : Layer 3
Режим : Joint stereo
Идентификатор кодека : 55
Идентификатор кодека/Подсказка : MP3
Продолжительность : 43 м. 46 с.
Вид битрейта : Постоянный
Битрейт : 128 Кбит/сек
Каналы : 2 канала
Частота : 48,0 КГц
Метод сжатия : С потерями
Размер потока : 40,1 Мбайт (7%)
Выравнивание : Соединение по промежуткам
Продолжительность промежутка : 42 мс. (1,00 видеокадр)
Время предзагрузки промежутка : 504 мс.
Библиотека кодирования : LAME3.99r
Настройки программы : -m j -V 4 -q 2 -lowpass 17 -b 128

pb.wtf



Скачать Слепая зона через торрент http://pic1.kartinco.top/images/11/5he3q.jpg Скачать фильм Слепая зона через торрент бесплантно в хорошем качестве Описание: В центре сюжета находится потерявшая свою память девушка, которая оказывается в центре расследования после того, как смогла ... 10 10 3
Торрент: Зарегистрирован [2018-05-28 16:56] · скачан: 31 раз
Статус: √ проверено
Размер: 11.82 GB
Как cкачать? Как скачать Слепая зона через торрент | qTorrent

% Раздел Тема Автор DL S | L
Зарубежные сериалы [ 31.91 GB ] Слепая зона / Слепое пятно / Blindspot / Сезон: 3 / Серии 1-22 из 22 [2017 WEB-DL 720p] MVO [NewStudio] GEKADOL Скачать
1 | 0
Зарубежные сериалы [ 42.62 GB ] Слепая зона / Слепое пятно / Blindspot / Сезон: 3 / Серии: 1-22 из 22 [2017 WEB-DL 720p] MVO [AlexFilm] bober100 Скачать
1 | 0
Зарубежные сериалы [ 11.17 GB ] Слепая зона / Слепое пятно / Blindspot / Сезон: 3 / Серии: 1-22 из 22 [2017 WEBRip] MVO [LostFilm] bober100 Скачать
1 | 0
Зарубежные сериалы [ 44.12 GB ] Слепая зона / Слепое пятно / Blindspot / Сезон: 3 / Серии: 1-22 из 22 [2017 WEBRip 720p] MVO [Jaskier] bober100 Скачать
1 | 0
Зарубежные сериалы [ 11.72 GB ] Слепая зона / Слепое пятно / Blindspot / Сезон: 3 / Серии: 1-22 из 22 [2017 WEBRip] MVO [Jaskier] bober100 Скачать
1 | 0
Зарубежные сериалы [ 10.98 GB ] Слепая зона / Слепое пятно / Blindspot / Сезон: 3 / Серии: 1-22 из 22 [2017 WEB-DLRip] MVO [AlexFilm] bober100 Скачать
1 | 0

28-11-2019 20:33  

Отключить всю рекламу на сайте

    Дорогой пользователь! Огромная просьба, поблагодарите релизера, оцените раздачу и оставьте свои комментарий, если Вы скачали Слепая зона через торрент бесплатно! Внесите свою лепту в развитие PiratBit!
    Комментировать посты могут только пользователи прошедшие не сложную регистрацию
    Показать сообщения:    

    Слепая зона через торрент
    Скачать бесплатно Слепая зона
    Слепая зона скачать торрент
    Слепая зона смотреть онлайн
    Cкачать фильм Слепая зона бесплатно
    Слепая зона скачать торрент в хорошем качестве
    Слепая зона смотреть онлайн бесплатно в хорошем качестве


    Вы не можете начинать темы
    Вы не можете отвечать на сообщения
    Вы не можете редактировать свои сообщения
    Вы не можете удалять свои сообщения
    Вы не можете голосовать в опросах
    Вы не можете прикреплять файлы к сообщениям
    Вы можете скачивать файлы