Ссылка на приватное зеркало всего за 1$. Внимание количество ограничено!!!

OK

1+1

iTunes

мы

OK

1

WEB-DLRip

Джокер

Пифагор

Ведьмак / The Witcher сериал

iTunes

ПШазам

ОК

Оно 2

iTunes

30
pack

Вам бонус

ВАЖНО

!!Акция!!

Alien_RageХит недели

RePack

Resident Evil 21

ИГРА 18+

pack

RePack

jed

RePack

fifa19

RePack

Assassins Creed: Odyssey

RePack

NEED FOR SPEED™ PAYBACK

4 сезон

9 сезон

Бесстыжие 9 сезон

Все сериалы

все сериалы на PB.wtf

RePack

FAR CRY 5
  

Наёмник / Mercenaire (Саша Фолфф) [2016, Драма, спорт, WEB-DL 720p] MVO ["Синема УС"] pb.wtf

Наёмник через торрент pb.wtf

Размер: 3.34 GB | Добавлен: 1 год 7 мес. назад | Торрент скачан:54 раза
Скачать  

28-05-2018 20:23 Наёмник Скачать торрент  

Наёмник / MercenaireГод выпуска: 2016
Страна: Франция
Жанр: Драма, спорт
Продолжительность: 01:40:48
Перевод: Любительский (многоголосый) | "Синема УС"
Субтитры: отсутствуют

Режиссер: Саша Фолфф

rating

В ролях:

Токи Пилиоко, Илиана Забет, Микаэле Туугахала, Лоран Пакихиватау, Бессарион Удесяни, Омар Хасан, Матиас Дюфо, Доминик Позцер, Николас Грерон

Описание:

Представитель местной народности из Новой Каледонии вопреки желанию отца отправляется во Францию, чтобы стать игроком в регби. Живя в другой части земного шара, парень узнаёт, что за успех приходится платить иногда слишком высокую цену.

Качество: WEB-DL 720p
Формат: MKV

Видео: h.264, 4 362 kb/s, 1280x536
Аудио#1: Русский (AC3, 2 ch, 384 Кбит/с)
скриншот  скриншот  скриншот  

Общее
Уникальный идентификатор : 237070366894167334147462384393113862267 (0xB25A1783AAD85935A6A928A32768807B)
Полное имя : F:\Mercenaire.2016.P.WEB-DL.72Op_KOSHARA.mkv
Формат : Matroska
Версия формата : Version 2
Размер файла : 3,34 Гбайт
Продолжительность : 1 ч. 40 м.
Режим общего битрейта : Переменный
Общий поток : 4748 Кбит/сек
Дата кодирования : UTC 2018-05-23 18:58:14
Программа кодирования : mkvmerge v8.3.0 ('Over the Horizon') 64bit
Библиотека кодирования : libebml v1.3.1 + libmatroska v1.4.2

Видео
Идентификатор : 1
Формат : AVC
Формат/Информация : Advanced Video Codec
Профиль формата : High@L4.1
Параметр CABAC формата : Да
Параметр RefFrames формата : 4 кадра
Идентификатор кодека : V_MPEG4/ISO/AVC
Продолжительность : 1 ч. 40 м.
Вид битрейта : Переменный
Битрейт : 4362 Кбит/сек
Максимальный битрейт : 5000 Кбит/сек
Ширина : 1280 пикселей
Высота : 536 пикселей
Соотношение сторон : 2,40:1
Режим частоты кадров : Постоянный
Частота кадров : 23,976 (24000/1001) кадра/сек
Стандарт вещания : Component
Цветовое пространство : YUV
Субдискретизация насыщенности : 4:2:0
Битовая глубина : 8 бит
Тип развёртки : Прогрессивная
Бит/(Пиксели*Кадры) : 0.260
Размер потока : 3,01 Гбайт (90%)
Default : Да
Forced : Нет
Цветовой диапазон : Limited
Основные цвета : BT.709
Характеристики трансфера : BT.709
Коэффициенты матрицы : BT.709

Аудио
Идентификатор : 2
Формат : AC-3
Формат/Информация : Audio Coding 3
Расширение режима : CM (complete main)
Параметр Endianness формата : Big
Идентификатор кодека : A_AC3
Продолжительность : 1 ч. 40 м.
Вид битрейта : Постоянный
Битрейт : 384 Кбит/сек
Каналы : 2 канала
Расположение каналов : Front: L R
Частота : 48,0 КГц
Частота кадров : 31,250 кадров/сек (1536 spf)
Метод сжатия : С потерями
Размер потока : 277 Мбайт (8%)
Default : Да
Forced : Нет

pb.wtf



Скачать Наёмник через торрент http://img12.lostpic.net/2018/05/28/96e47502c49fa09180075097ae41863e.jpg Скачать фильм Наёмник через торрент бесплантно в хорошем качестве Описание: Представитель местной народности из Новой Каледонии вопреки желанию отца отправляется во Францию, чтобы стать игроком в регби. ... 10 10 3
Торрент: Зарегистрирован [2018-05-28 20:23] · скачан: 54 раз
Статус: T временная
Размер: 3.34 GB
Как cкачать? Как скачать Наёмник через торрент | qTorrent

% Раздел Тема Автор DL S | L
T Фильмы (мультфильмы) cо спонсором показа (Новинки AVI/MKV) [ 1.37 GB ] Наёмник / Mercenaire [2016 WEB-DLRip] MVO ["Синема УС"] bober100 Скачать
1 | 0

28-11-2019 20:33  

Отключить всю рекламу на сайте

    Дорогой пользователь! Огромная просьба, поблагодарите релизера, оцените раздачу и оставьте свои комментарий, если Вы скачали Наёмник через торрент бесплатно! Внесите свою лепту в развитие PiratBit!
    Комментировать посты могут только пользователи прошедшие не сложную регистрацию
    Показать сообщения:    

    Наёмник через торрент
    Скачать бесплатно Наёмник
    Наёмник скачать торрент
    Наёмник смотреть онлайн
    Cкачать фильм Наёмник бесплатно
    Наёмник скачать торрент в хорошем качестве
    Наёмник смотреть онлайн бесплатно в хорошем качестве


    Вы не можете начинать темы
    Вы не можете отвечать на сообщения
    Вы не можете редактировать свои сообщения
    Вы не можете удалять свои сообщения
    Вы не можете голосовать в опросах
    Вы не можете прикреплять файлы к сообщениям
    Вы можете скачивать файлы