Marvel's Avengers Deluxe Edition (супер цена) 159р. Внимание количество ограничено!!!

2 сезон

iTunes

iTunes

1

iTunes

iTunes

iTunes

WEBRip

iTunes

30
pack

Новость дня

ВАЖНО

!!Акция!!

Alien_RageХит недели

RePack

Horizon Zero Dawn

ИГРА 18+

pack

RePack

jed

!!Акция!!

Alien_Rage

RePack

fifa19

RePack

Assassins Creed: Odyssey

RePack

NEED FOR SPEED™ PAYBACK

4 сезон

9 сезон

Бесстыжие 9 сезон

Все сериалы

все сериалы на PB.wtf

RePack

FAR CRY 5
  

Пропавший викинг / The Lost Viking (Еммет Куминтс) [2018, Приключения, WEB-DL 720p] MVO ["Синема УС"] pb.wtf

Пропавший викинг через торрент pb.wtf

Размер: 4.01 GB | Добавлен: 2 года 3 мес. назад | Торрент скачан:146 раз
Скачать  

29-05-2018 02:00 Пропавший викинг Скачать торрент  

Пропавший викинг / The Lost Viking
Год выпуска: 2018
Страна: Великобритания
Жанр: Приключения
Продолжительность: 01:48:54
Перевод: Любительский (многоголосый) | "Синема УС"
Субтитры: отсутствуют

Режиссер: Еммет Куминтс

rating

В ролях:

Дин Ридж, Росс О'Хеннесси, Кезия Берроуз, Джеймс Грум, Йен Вирго, Мишель Мактернан, Иоан Хефин, Кристофер Хэмсон, Элин Хейс, Катра Рыцарь

Описание:

Молодой викинг по имени Витарр прибывает в Британию, мечтая о приключениях и завоеваниях, но после того, как весь его клан и его семью вырезают, ему приходится выживать в чуждой для себе стране, вынашивая планы мести.

Качество: WEB-DL 720p
Формат: MKV

Видео: h.264, 4 884 kb/s 1280x536
Аудио: Русский (AC3, 2 ch, 384 Кбит/с)
скриншот  скриншот  скриншот  

Общее
Уникальный идентификатор : 187673790798120184539873969688044164255 (0x8D30A847EC99D2A6BB7A0D609AE0D49F)
Полное имя : F:\PosLedniY.VeKeng.2O18.P.WEB-DL.72Op_KOSHARA.mkv
Формат : Matroska
Версия формата : Version 2
Размер файла : 4,01 Гбайт
Продолжительность : 1 ч. 48 м.
Режим общего битрейта : Переменный
Общий поток : 5270 Кбит/сек
Дата кодирования : UTC 2018-05-28 18:56:27
Программа кодирования : mkvmerge v8.3.0 ('Over the Horizon') 64bit
Библиотека кодирования : libebml v1.3.1 + libmatroska v1.4.2

Видео
Идентификатор : 1
Формат : AVC
Формат/Информация : Advanced Video Codec
Профиль формата : High@L4.1
Параметр CABAC формата : Да
Параметр RefFrames формата : 4 кадра
Идентификатор кодека : V_MPEG4/ISO/AVC
Продолжительность : 1 ч. 48 м.
Вид битрейта : Переменный
Битрейт : 4884 Кбит/сек
Максимальный битрейт : 5500 Кбит/сек
Ширина : 1280 пикселей
Высота : 536 пикселей
Соотношение сторон : 2,40:1
Режим частоты кадров : Постоянный
Частота кадров : 23,976 (24000/1001) кадра/сек
Стандарт вещания : Component
Цветовое пространство : YUV
Субдискретизация насыщенности : 4:2:0
Битовая глубина : 8 бит
Тип развёртки : Прогрессивная
Бит/(Пиксели*Кадры) : 0.291
Размер потока : 3,64 Гбайт (91%)
Default : Да
Forced : Нет
Цветовой диапазон : Limited
Основные цвета : BT.709
Характеристики трансфера : BT.709
Коэффициенты матрицы : BT.709

Аудио
Идентификатор : 2
Формат : AC-3
Формат/Информация : Audio Coding 3
Расширение режима : CM (complete main)
Параметр Endianness формата : Big
Идентификатор кодека : A_AC3
Продолжительность : 1 ч. 48 м.
Вид битрейта : Постоянный
Битрейт : 384 Кбит/сек
Каналы : 2 канала
Расположение каналов : Front: L R
Частота : 48,0 КГц
Частота кадров : 31,250 кадров/сек (1536 spf)
Метод сжатия : С потерями
Размер потока : 299 Мбайт (7%)
Default : Да
Forced : Нет

pb.wtf



Скачать Пропавший викинг через торрент http://img12.lostpic.net/2018/05/29/538381cc72d1be4d4d9d6a29f151203e.jpg Скачать фильм Пропавший викинг через торрент бесплантно в хорошем качестве Описание: Молодой викинг по имени Витарр прибывает в Британию, мечтая о приключениях и завоеваниях, но после того, как весь его клан и его ... 9.1 10 7
Торрент: Зарегистрирован [2018-05-29 02:00] · скачан: 146 раз
Статус: T временная
Размер: 4.01 GB
Как cкачать? Как скачать Пропавший викинг через торрент | qTorrent

% Раздел Тема Автор DL S | L
T Фильмы (мультфильмы) cо спонсором показа (Новинки AVI/MKV) [ 1.46 GB ] Пропавший викинг / The Lost Viking [2018 WEB-DLRip] MVO ["Синема УС"] bober100 Скачать
1 | 0
T Фильмы (мультфильмы) cо спонсором показа (Новинки AVI/MKV) [ 4.3 GB ] Пропавший викинг / The Lost Viking [2018 WEB-DL 1080p] MVO ["Синема УС"] bober100 Скачать
1 | 0

28-11-2019 20:33  

Отключить всю рекламу на сайте

29-05-2018 17:23 Пропавший викинг Скачать торрент  

как фильмец?pb.wtf



    Дорогой пользователь! Огромная просьба, поблагодарите релизера, оцените раздачу и оставьте свои комментарий, если Вы скачали Пропавший викинг через торрент бесплатно! Внесите свою лепту в развитие PiratBit!
    Комментировать посты могут только пользователи прошедшие не сложную регистрацию
    Показать сообщения:    

    Пропавший викинг через торрент
    Скачать бесплатно Пропавший викинг
    Пропавший викинг скачать торрент
    Пропавший викинг смотреть онлайн
    Cкачать фильм Пропавший викинг бесплатно
    Пропавший викинг скачать торрент в хорошем качестве
    Пропавший викинг смотреть онлайн бесплатно в хорошем качестве


    Вы не можете начинать темы
    Вы не можете отвечать на сообщения
    Вы не можете редактировать свои сообщения
    Вы не можете удалять свои сообщения
    Вы не можете голосовать в опросах
    Вы не можете прикреплять файлы к сообщениям
    Вы можете скачивать файлы