1 сезон

3 сезон

iTunes

1

iTunes

MVO

iTunes

13

1 сезон

RePack

30

Deluxe

pack

Лицензия

ВАЖНО

ИГРА 18+

pack

RePack

MK11

RePack

jed

RePack

fifa19

RePack

RDR2

RePack

NEED FOR SPEED™ PAYBACK

4 сезон

9 сезон

Бесстыжие 9 сезон

Все сериалы

все сериалы на PB.wtf

RePack

FAR CRY 5

Anonymous, добрый день, мы катастрофически не успеваем собрать деньги на оплату серверов, помогите нам пожалуйста 5,10,15р., для нас важна любая помощь . В качестве благодарности мы отключим Вам всю рекламу на сайте (укажите свой ник в строку Ваше имя)!

×
  
Magnet ссылка

Опасный бизнес / Gringo (Нэш Эдгертон) [2018, боевик, комедия, криминал, BDRip от R.G. Resident] DUB [iTunes] pb.wtf

Опасный бизнес через торрент pb.wtf

Размер: 1.46 GB | Добавлен: 3 года 1 мес. назад | Торрент скачан:1067 раз
Скачать  

29-05-2018 06:17 Опасный бизнес Скачать торрент  

Опасный бизнес / Gringo
««An American Corporation, The Mexican Cartel, Chances Are This Won't End Well»»

Год выпуска: 2018
Страна: Австралия, США
Жанр: боевик, комедия, криминал

Продолжительность: 01:50:38
Перевод: Дубляж - [Лицензия / iTunes]
Режиссер: Нэш Эдгертон
В ролях:

Джоэл Эдгертон (Richard Rusk), Шарлиз Терон (Elaine Markinson), Дэвид Ойелоуо (Harold Soyinka), Тэнди Ньютон (Bonnie Soyinka), Башир Салахуддин (Stu), Гленн Кубота (Shigetoshi Yasumura), Мелони Диас (Mia), Аманда Сайфред (Sunny), Гарри Тредэвэй (Miles), Тео Таплитц (Justin), Пэрис Джексон (Nelly), Юл Васкес (Angel Valverde)
Описание:
Дерзкая длинноногая блондинка - она идеально подходит для опасного бизнеса. Однажды одному из ее подчиненных становится известна уникальная формула, за которой гоняется весь мир. Он решает инсценировать собственное похищение и потребовать выкуп у компании. Лучше этому умнику не рассчитывать на помощь своей эффектной начальницы, ведь для корпорации он предпочтительнее мертвый, чем живой.
Рейтинг:
rating
MPAA: R - Лицам до 17 лет обязательно присутствие взрослого
Качество: BDRip
Формат: AVI
Видео: XviD, 720x304 (2.35:1), 1496 kbps, 23,976 fps, 0,285 bpp
Аудио: AC3 / 5.1 / 48 kHz / 384 kbps /

General
Complete name : F:\Gringo.2018.BDRip.R.G.Resident.avi
Format : AVI
Format/Info : Audio Video Interleave
File size : 1.46 GiB
Duration : 1 h 50 min
Overall bit rate : 1 890 kb/s
Writing application : VirtualDubModRus 1.5.10.2 (build 2542/release)
Writing library : VirtualDubMod build 2542/release

Video
ID : 0
Format : MPEG-4 Visual
Format profile : Advanced Simple@L5
Format settings, BVOP : 1
Format settings, QPel : No
Format settings, GMC : No warppoints
Format settings, Matrix : Custom
Codec ID : XVID
Codec ID/Hint : XviD
Duration : 1 h 50 min
Bit rate : 1 497 kb/s
Width : 720 pixels
Height : 304 pixels
Display aspect ratio : 2.35:1
Frame rate : 23.976 (24000/1001) FPS
Color space : YUV
Chroma subsampling : 4:2:0
Bit depth : 8 bits
Scan type : Progressive
Compression mode : Lossy
Bits/(Pixel*Frame) : 0.285
Stream size : 1.16 GiB (79%)
Writing library : XviD 73

Audio
ID : 1
Format : AC-3
Format/Info : Audio Coding 3
Mode extension : CM (complete main)
Format settings, Endianness : Big
Codec ID : 2000
Duration : 1 h 50 min
Bit rate mode : Constant
Bit rate : 384 kb/s
Channel(s) : 6 channels
Channel positions : Front: L C R, Side: L R, LFE
Sampling rate : 48.0 kHz
Frame rate : 31.250 FPS (1536 spf)
Compression mode : Lossy
Stream size : 304 MiB (20%)
Alignment : Split accross interleaves
Interleave, duration : 42 ms (1.00 video frame)
Interleave, preload duration : 500 ms
pb.wtf



Скачать Опасный бизнес через торрент http://i77.fastpic.ru/big/2016/0417/a7/808a646271c761f7c7d87df3d366b3a7.png Скачать фильм Опасный бизнес через торрент бесплантно в хорошем качестве Описание: Дерзкая длинноногая блондинка - она идеально подходит для опасного бизнеса. Однажды одному из ее подчиненных становится известна ... 9.7 10 19
Info! Золотая раздача, скачанное не засчитывается.
Торрент: Зарегистрирован [2018-05-29 07:13] · скачан: 1 067 раз
Статус: √ проверено
Размер: 1.46 GB
Как cкачать? Как скачать Опасный бизнес через торрент | UTorrent

% Раздел Тема Автор DL S | L
Фильмы 2018 [DVDrip, WEB-DLRip, HDrip] (DUB, MVO) [ 2.52 GB ] Опасный бизнес / Gringo [2018 BDRip-AVC] - AVO [Есарев] - ExKinoRay Enigma2010 Скачать
1 | 0
Фильмы 2018 [DVDrip, WEB-DLRip, HDrip] (DUB, MVO) [ 1.41 GB ] Опасный бизнес / Gringo [2018 BDRip] DEVI Скачать
2 | 0
Фильмы (WEB-DL 720p, 1080p) [ 4.03 GB ] Опасный бизнес / Gringo [2018 WEB-DL 720p] DUB bober100 Скачать
1 | 0
Фильмы (Blu-ray, BD-Remux, HDDVD) [ 32.96 GB ] Опасный бизнес / Gringo [2018 BD Remux 1080p] AVO [Д. Есарев] +DUB bober100 Скачать
1 | 0


Последний раз редактировалось: -Lexx- (2018-05-31 08:41), всего редактировалось 1 раз

28-11-2019 20:33  

Отключить всю рекламу на сайте

29-05-2018 17:32 Опасный бизнес Скачать торрент  

Отличный ФИЛЬМ!pb.wtf



30-05-2018 09:54 Опасный бизнес Скачать торрент  

Спасибо за раздачу. Нужно глянуть, надеюсь фильм не огорчитpb.wtf



31-05-2018 03:29 Опасный бизнес Скачать торрент  

Фильм отличный 4 из 5 автору спс.pb.wtf



    Дорогой пользователь! Огромная просьба, поблагодарите релизера, оцените раздачу и оставьте свои комментарий, если Вы скачали Опасный бизнес через торрент бесплатно! Внесите свою лепту в развитие PiratBit!
    Комментировать посты могут только пользователи прошедшие не сложную регистрацию
    Показать сообщения:    

    Опасный бизнес через торрент
    Скачать бесплатно Опасный бизнес
    Опасный бизнес скачать торрент
    Опасный бизнес смотреть онлайн
    Cкачать фильм Опасный бизнес бесплатно
    Опасный бизнес скачать торрент в хорошем качестве
    Опасный бизнес смотреть онлайн бесплатно в хорошем качестве


    Вы не можете начинать темы
    Вы не можете отвечать на сообщения
    Вы не можете редактировать свои сообщения
    Вы не можете удалять свои сообщения
    Вы не можете голосовать в опросах
    Вы не можете прикреплять файлы к сообщениям
    Вы можете скачивать файлы