2 сезон

iTunes

MVO

1

2 сезон

iTunes

iTunes

1 сезон

RePack

30

Новинка

ВАЖНО

ИГРА 18+

pack

RePack

MK11
pack

Легкие деньги

RePack

jed

RePack

fifa19

RePack

RDR2

RePack

NEED FOR SPEED™ PAYBACK

4 сезон

9 сезон

Бесстыжие 9 сезон

Все сериалы

все сериалы на PB.wtf

RePack

FAR CRY 5

Anonymous, доброй ночи, мы не успеваем собрать деньги на оплату серверов за декабрь и январь, помогите нам пожалуйста в это трудное время. В качестве благодарности мы отключим Вам всю рекламу на сайте (укажите свой ник в строку Ваше имя)!

×
  
Magnet ссылка

Царь обезьян: Царство женщин в 3Д / The Monkey King 3: Kingdom of Women 3D (Чин Поу-Сои / Cheang Pou-Soi) [2018, фэнтези, боевик, приключения, комедия, BDrip, 1080p] OverUnder / Вертикальная стереопара pb.wtf

Царь обезьян: Царство женщин в 3Д через торрент pb.wtf

Размер: 21.41 GB | Добавлен: 2 года 7 мес. назад | Торрент скачан:17 раз
Скачать  

29-05-2018 15:23 Царь обезьян: Царство женщин в 3Д Скачать торрент  

Царь обезьян: Царство женщин / The Monkey King 3: Kingdom of Women / Xi you ji nu er guo

Год выпуска: 2018
Страна: Китай, Гонконг (Filmko Film Co., Filmko Pictures, Shanghai Hanna Pictures Ltd.)
Жанр: фэнтези, боевик, приключения, комедия
Продолжительность: 01:54:01

Перевод: Любительский многоголосый закадровый ( Колобок)
Русские субтитры: нет
Режиссер: Чин Поу-Сои / Cheang Pou-Soi

В ролях: Аарон Квок, Уилльям Фэн, Чжао Лиин, Ло Чун-Хим, Сяо Шэньян, Сунь Ихань, Сунь Ихань, Юэнь Кин-Тань, Линь Чилин, Лю Тао

Описание: Путешествие героев приводит их в страну, где живут только женщины. Пророчество гласит, что пришедшие мужчины принесут стране разрушение, поэтому местная правительница приказывает казнить чужаков. Но на её дочь уже начал действовать любовный яд, и та спасает пленников.

Сэмпл: http://sendfile.su/1422342

Качество: BDrip, 1080p
Контейнер: MKV
Формат 3D: OverUnder / Вертикальная стереопара
Порядок ракурсов: левый ракурс первый
Видео кодек: x264
Аудио кодек: AC3
Видео: AVC / High@L5.0 / 23,976 fps / 1920х2160 / 25,7 Мбит/сек
Аудио: Русский / AC3 / 48 KHz / 5.1 ch / 640 Кбит/сек(MVO - Колобок)(работа с дорогой - Ash61)

ВНИМАНИЕ ! На встроенных ТВ-плеерах работать не будет!!!

ТВ Samsung в названии которого есть надпись Ultra HD , и LG Ultra HD 800 серии, LG C6P, Xiaomi Mi TV 2 воспроизводят полные стереопары встроенными плеерами
Железные плееры на которых воспроизводятся полные стереопары:Popcorn C-200 , Dune HD Smart D1 , Dune HD DUO , Dune HD Smart H1 , Dune HD Smart B1 , Dune HD Max , Dune HD TV-303D, Dune HD TV-102, Dune HD Base 3D, Philips HMP7001, Aura HD, MECOOL BB2
Чтобы изображение было на весь экран в плеере выставляем, если рип 1920х1600 - то выставляем 2.35:1 , если 1920х2160 - то выставляем 16:9
Общее
Уникальный идентификатор : 246527891700679509083037204207017102657 (0xB9778B7CF2968B3B8BAB6DC587F38D41)
Полное имя : E:\The Monkey King 3 Kingdom of Women.Rip by SeRoGa00.mkv
Формат : Matroska
Версия формата : Version 2
Размер файла : 21,4 Гбайт
Продолжительность : 1 ч. 54 м.
Общий поток : 26,9 Мбит/сек
Дата кодирования : UTC 2018-05-29 12:21:13
Программа кодирования : mkvmerge v3.4.0 ('Rapunzel') сборка от May 15 2010 09:38:20
Библиотека кодирования : libebml v0.8.0 + libmatroska v0.9.0

Видео
Идентификатор : 1
Формат : AVC
Формат/Информация : Advanced Video Codec
Профиль формата : High@L5.0
Параметр CABAC формата : Да
Параметр ReFrames формата : 4 кадра
Идентификатор кодека : V_MPEG4/ISO/AVC
Продолжительность : 1 ч. 54 м.
Битрейт : 25,7 Мбит/сек
Ширина : 1920 пикселей
Высота : 2160 пикселей
Соотношение сторон : 0,889
Частота кадров : 23,976 кадра/сек
Цветовое пространство : YUV
Субдискретизация насыщенности : 4:2:0
Битовая глубина : 8 бит
Тип развёртки : Прогрессивная
Бит/(Пиксели*Кадры) : 0.259
Размер потока : 20,5 Гбайт (96%)
Заголовок : Rip by SeRoGa00
Библиотека кодирования : x264 core 155 r2901 7d0ff22
Настройки программы : cabac=1 / ref=4 / deblock=1:-3:-3 / analyse=0x3:0x113 / me=umh / subme=10 / psy=1 / psy_rd=1.00:0.15 / mixed_ref=1 / me_range=24 / chroma_me=1 / trellis=2 / 8x8dct=1 / cqm=0 / deadzone=21,11 / fast_pskip=1 / chroma_qp_offset=-3 / threads=18 / lookahead_threads=6 / sliced_threads=0 / nr=0 / decimate=0 / interlaced=0 / bluray_compat=0 / constrained_intra=0 / bframes=10 / b_pyramid=2 / b_adapt=2 / b_bias=0 / direct=3 / weightb=1 / open_gop=0 / weightp=2 / keyint=250 / keyint_min=23 / scenecut=40 / intra_refresh=0 / rc_lookahead=60 / rc=crf / mbtree=1 / crf=16.5 / qcomp=0.60 / qpmin=10 / qpmax=69 / qpstep=4 / vbv_maxrate=40000 / vbv_bufsize=40000 / crf_max=0.0 / nal_hrd=none / filler=0 / ip_ratio=1.40 / aq=1:1.00
Язык : English
Default : Нет
Forced : Нет

Аудио
Идентификатор : 2
Формат : AC-3
Формат/Информация : Audio Coding 3
Расширение режима : CM (complete main)
Параметр Endianness формата : Big
Идентификатор кодека : A_AC3
Продолжительность : 1 ч. 54 м.
Вид битрейта : Постоянный
Битрейт : 640 Кбит/сек
Каналы : 6 каналов
Расположение каналов : Front: L C R, Side: L R, LFE
Частота : 48,0 КГц
Битовая глубина : 16 бит
Метод сжатия : С потерями
Размер потока : 522 Мбайт (2%)
Язык : Russian
Default : Да
Forced : Нет

Меню
00:00:00.000 : en:00:00:00.000
00:05:04.513 : en:00:05:04.513
00:09:29.778 : en:00:09:29.778
00:13:46.367 : en:00:13:46.367
00:17:21.374 : en:00:17:21.374
00:21:17.234 : en:00:21:17.234
00:27:03.747 : en:00:27:03.747
00:31:02.778 : en:00:31:02.778
00:36:00.825 : en:00:36:00.825
00:41:05.922 : en:00:41:05.922
00:48:14.683 : en:00:48:14.683
00:56:12.286 : en:00:56:12.286
01:01:52.584 : en:01:01:52.584
01:06:38.995 : en:01:06:38.995
01:14:13.074 : en:01:14:13.074
01:21:37.059 : en:01:21:37.059
01:29:13.723 : en:01:29:13.723
01:38:52.969 : en:01:38:52.969
01:44:48.157 : en:01:44:48.157
01:47:12.551 : en:01:47:12.551
pb.wtf



Скачать Царь обезьян: Царство женщин в 3Д через торрент https://c.radikal.ru/c11/1805/22/419ef1585c9a.png Скачать фильм Царь обезьян: Царство женщин в 3Д через торрент бесплантно в хорошем качестве Описание: Путешествие героев приводит их в страну, где живут только женщины. Пророчество гласит, что пришедшие мужчины принесут стране ... 10 10 2
Info! Золотая раздача, скачанное не засчитывается.
Торрент: Зарегистрирован [2018-05-29 15:23] · скачан: 17 раз
Статус: T временная
Размер: 21.41 GB
Как cкачать? Как скачать Царь обезьян: Царство женщин в 3Д через торрент | UTorrent

28-11-2019 20:33  

Отключить всю рекламу на сайте

    Дорогой пользователь! Огромная просьба, поблагодарите релизера, оцените раздачу и оставьте свои комментарий, если Вы скачали Царь обезьян: Царство женщин в 3Д через торрент бесплатно! Внесите свою лепту в развитие PiratBit!
    Комментировать посты могут только пользователи прошедшие не сложную регистрацию
    Показать сообщения:    

    Царь обезьян: Царство женщин в 3Д через торрент
    Скачать бесплатно Царь обезьян: Царство женщин в 3Д
    Царь обезьян: Царство женщин в 3Д скачать торрент
    Царь обезьян: Царство женщин в 3Д смотреть онлайн
    Cкачать фильм Царь обезьян: Царство женщин в 3Д бесплатно
    Царь обезьян: Царство женщин в 3Д скачать торрент в хорошем качестве
    Царь обезьян: Царство женщин в 3Д смотреть онлайн бесплатно в хорошем качестве


    Вы не можете начинать темы
    Вы не можете отвечать на сообщения
    Вы не можете редактировать свои сообщения
    Вы не можете удалять свои сообщения
    Вы не можете голосовать в опросах
    Вы не можете прикреплять файлы к сообщениям
    Вы можете скачивать файлы