Ссылка на приватное зеркало нашего сайта всего за 1$. Внимание количество ограничено!!!

2 сезон

iTunes

1 сезон

1

2 сезон

2 сезон

iTunes

1 сезон

RePack

30

Новинка

ВАЖНО

ИГРА 18+

pack

RePack

MK11
pack

Забери бонус

RePack

jed

!!Акция!!

Alien_Rage

RePack

fifa19

RePack

Assassins Creed: Odyssey

RePack

NEED FOR SPEED™ PAYBACK

4 сезон

9 сезон

Бесстыжие 9 сезон

Все сериалы

все сериалы на PB.wtf

RePack

FAR CRY 5
  

Точка невозврата / High Wire Act (Брэд Андерсон) [2018, триллер, драма, WEB-DL 1080p] [Локализованный видеоряд] DUB [iTunes] pb.wtf

Точка невозврата через торрент pb.wtf

Размер: 3.68 GB | Добавлен: 2 года 5 мес. назад | Торрент скачан:545 раз
Скачать  

29-05-2018 20:27 Точка невозврата Скачать торрент  

Точка невозврата / High Wire Act
Год выпуска: 2018
Страна: США
Жанр: триллер, драма
Продолжительность: 01:44:50
Перевод: Дублированный | iTunes
Субтитры: отсутствуют

Режиссер: Брэд Андерсон

rating

В ролях:

Розамунд Пайк, Джон Хэмм, Марк Пеллегрино, Дин Норрис, Шей Уигэм, Джонатан Койн, Дуглас Ходж, Лейла Бехти, Кейт Флитвуд, Алон Абутбул

Описание:

Разгар Ливанской войны. Интриги, предательство, грязные компроматы, нравственное падение, жертвенность и любовь, боль и надежда… На руках героя умирает жена, подстреленная террористами. Через десять лет он, преодолев ненависть и отчаяние, возвращается в Бейрут, чтобы вызволить из плена давнего друга, захваченного в плен боевиками.

Качество: WEB-DL 1080p | Локализованный видеоряд
Формат: MKV

Видео: MPEG-4 AVC, 1920x804, 4635 Kbit/s, 25.000 fps
Аудио: 48 kHz, AC3, 5.1, 384 Kbps | iTunes | RUS |
скриншот   скриншот   скриншот   скриншот   скриншот  

General
Unique ID : 202714081841411511116797679698595903375 (0x98814FE1A3AF5BA96B61920EC509778F)
Complete name : C:Video111High.Wire.Act.2018.WEB-DL.1080p.ExKinoRay.mkv
Format : Matroska
Format version : Version 4 / Version 2
File size : 3.68 GiB
Duration : 1 h 44 min
Overall bit rate : 5 020 kb/s
Movie name : High Wire Act 2018 from ExKinoRay
Encoded date : UTC 2018-05-29 20:04:39
Writing application : mkvmerge v22.0.0 ('At The End Of The World') 64-bit
Writing library : libebml v1.3.5 + libmatroska v1.4.8

Video
ID : 1
Format : AVC
Format/Info : Advanced Video Codec
Format profile : High@L4
Format settings : CABAC / 5 Ref Frames
Format settings, CABAC : Yes
Format settings, ReFrames : 5 frames
Codec ID : V_MPEG4/ISO/AVC
Duration : 1 h 44 min
Bit rate : 4 635 kb/s
Width : 1 920 pixels
Height : 804 pixels
Display aspect ratio : 2.40:1
Frame rate mode : Constant
Frame rate : 25.000 FPS
Color space : YUV
Chroma subsampling : 4:2:0
Bit depth : 8 bits
Scan type : Progressive
Bits/(Pixel*Frame) : 0.120
Stream size : 3.39 GiB (92%)
Language : English
Default : Yes
Forced : No
Color range : Limited
Color primaries : BT.709
Transfer characteristics : BT.709
Matrix coefficients : BT.709

Audio
ID : 2
Format : AC-3
Format/Info : Audio Coding 3
Codec ID : A_AC3
Duration : 1 h 44 min
Bit rate mode : Constant
Bit rate : 384 kb/s
Channel(s) : 6 channels
Channel positions : Front: L C R, Side: L R, LFE
Sampling rate : 48.0 kHz
Frame rate : 31.250 FPS (1536 SPF)
Bit depth : 16 bits
Compression mode : Lossy
Stream size : 288 MiB (8%)
Title : iTunes
Language : Russian
Service kind : Complete Main
Default : Yes
Forced : Yes

Menu
00:00:00.000 : en:Глава 1
00:04:23.920 : en:Глава 2
00:12:31.720 : en:Глава 3
00:16:16.080 : en:Глава 4
00:20:04.440 : en:Глава 5
00:28:25.960 : en:Глава 6
00:32:43.239 : en:Глава 7
00:40:05.119 : en:Глава 8
00:48:11.559 : en:Глава 9
00:57:55.838 : en:Глава 10
01:07:42.798 : en:Глава 11
01:18:27.398 : en:Глава 12
01:28:04.238 : en:Глава 13
01:34:36.118 : en:Глава 14
01:39:38.157 : en:Глава 15

pb.wtf



Скачать Точка невозврата через торрент http://pic1.kartinco.top/images/11/9oipf.jpg Скачать фильм Точка невозврата через торрент бесплантно в хорошем качестве Описание: Разгар Ливанской войны. Интриги, предательство, грязные компроматы, нравственное падение, жертвенность и любовь, боль и надежда… ... 10 10 11
Info! Золотая раздача, скачанное не засчитывается.
Торрент: Зарегистрирован [2018-05-29 20:27] · скачан: 545 раз
Статус: √ проверено
Размер: 3.68 GB
Как cкачать? Как скачать Точка невозврата через торрент | qTorrent

% Раздел Тема Автор DL S | L
Фильмы [HD 720p, 1080p] (Хороший звук DUB, MVO) [ 12.89 GB ] Точка невозврата / High Wire Act / Beirut [2018 BDRip 1080p] DUB [ R5] bober100 Скачать
1 | 0
Фильмы 2018 [DVDrip, WEB-DLRip, HDrip] (DUB, MVO) [ 2.09 GB ] Точка невозврата / High Wire Act [2018 BDRip-AVC] [] - ExKinoRay Enigma2010 Скачать
1 | 0
Фильмы 2018 [DVDrip, WEB-DLRip, HDrip] (DUB, MVO) [ 745 MB ] Точка невозврата / High Wire Act / Beirut [2018 HDRip] DUB [ R5] bober100 Скачать
1 | 0
Фильмы 2018 [DVDrip, WEB-DLRip, HDrip] (DUB, MVO) [ 1.46 GB ] Точка невозврата / High Wire Act / Beirut [2018 BDRip] DUB [ R5] bober100 Скачать
1 | 0
Фильмы [HD 720p, 1080p] (Хороший звук DUB, MVO) [ 5.01 GB ] Точка невозврата / High Wire Act / Beirut [2018 BDRip 720p] DUB [ R5] bober100 Скачать
1 | 0
Фильмы (Blu-ray, BD-Remux, HDDVD) [ 29.89 GB ] Точка невозврата / High Wire Act / Beirut [2018 BD Remux 1080p] DUB [ R5] bober100 Скачать
1 | 0
Фильмы 2018 [DVDrip, WEB-DLRip, HDrip] (DUB, MVO) [ 2.18 GB ] Точка невозврата / High Wire Act [2018 BDRip] - [] Twi7ter Скачать
1 | 0

28-11-2019 20:33  

Отключить всю рекламу на сайте

30-05-2018 14:36 Точка невозврата Скачать торрент  

Originalnoje nazvanyje etovo filma "The Negotiator'' any kakoje tam High Wire Act!!!! :):)pb.wtf



    Дорогой пользователь! Огромная просьба, поблагодарите релизера, оцените раздачу и оставьте свои комментарий, если Вы скачали Точка невозврата через торрент бесплатно! Внесите свою лепту в развитие PiratBit!
    Комментировать посты могут только пользователи прошедшие не сложную регистрацию
    Показать сообщения:    

    Точка невозврата через торрент
    Скачать бесплатно Точка невозврата
    Точка невозврата скачать торрент
    Точка невозврата смотреть онлайн
    Cкачать фильм Точка невозврата бесплатно
    Точка невозврата скачать торрент в хорошем качестве
    Точка невозврата смотреть онлайн бесплатно в хорошем качестве


    Вы не можете начинать темы
    Вы не можете отвечать на сообщения
    Вы не можете редактировать свои сообщения
    Вы не можете удалять свои сообщения
    Вы не можете голосовать в опросах
    Вы не можете прикреплять файлы к сообщениям
    Вы можете скачивать файлы