Ссылка на приватное зеркало всего за 1$. Внимание количество ограничено!!!

OK

1+1

iTunes

мы

OK

1

WEB-DLRip

Джокер

Пифагор

Ведьмак / The Witcher сериал

Лицензия

ПШазам

ОК

Оно 2

iTunes

30
pack

Вам бонус

ВАЖНО

!!Акция!!

Alien_RageХит недели

RePack

Resident Evil 21

ИГРА 18+

pack

RePack

jed

RePack

fifa19

RePack

Assassins Creed: Odyssey

RePack

NEED FOR SPEED™ PAYBACK

4 сезон

9 сезон

Бесстыжие 9 сезон

Все сериалы

все сериалы на PB.wtf

RePack

FAR CRY 5
  

Инопланетный психоз / Alien Psychosis (Джейсон Миллс) [2018, Ужасы, WEB-DL 720p] MVO ["Синема УС"] pb.wtf

Инопланетный психоз через торрент pb.wtf

Раздают: 1 [ 0 KB/s ]
Размер: 2.69 GB | Добавлен: 1 год 7 мес. назад | Торрент скачан:48 раз
Скачать  

30-05-2018 06:43 Инопланетный психоз Скачать торрент  

Инопланетный психоз / Alien PsychosisГод выпуска: 2018
Страна: США
Жанр: Ужасы
Продолжительность: 01:15:30
Перевод: Любительский (многоголосый) | "Синема УС"
Субтитры: отсутствуют

Режиссер: Джейсон Миллс

rating

В ролях:

Стив Бэран, Ли Томашевски, Джексон Берлин

Описание:

Райан О'Нил, ветеран войны, страдающий от ранения получивший в бою, возвращается домой к своей беременной жене Стефани. Ее брат Тони, коррумпированный полицейский, помогал ей, пока ее муж служил стране. Райан и Тони никогда не любили друг друга, когда у Райана начинают появляться вспышки и видения убийц, инопланетян и других странных существ в его доме по ночам, он не уверен, реально ли это, или это просто в его уме. Стефани, уже на грани с Райаном, глубоко обеспокоена поведением своего мужа. По прошествии дней Райан скоро узнает, какое зловещее присутствие преследовало его в его кошмарах.

Качество: WEB-DL 720p
Формат: MKV

Видео: h.264, 4 709 kb/s, 1280x688
Аудио#1: Русский (AC3, 2 ch, 384 Кбит/с)
скриншот  скриншот  скриншот  

Общее
Уникальный идентификатор : 172533498430879617064359354587227899789 (0x81CCBE3C0CD3D73FBC5F74633FC0478D)
Полное имя : F:\Alien.Psychosis.2018.P.WEB-DL.72Op_KOSHARA.mkv
Формат : Matroska
Версия формата : Version 2
Размер файла : 2,69 Гбайт
Продолжительность : 1 ч. 15 м.
Режим общего битрейта : Переменный
Общий поток : 5094 Кбит/сек
Дата кодирования : UTC 2018-05-29 15:10:23
Программа кодирования : mkvmerge v8.3.0 ('Over the Horizon') 64bit
Библиотека кодирования : libebml v1.3.1 + libmatroska v1.4.2

Видео
Идентификатор : 1
Формат : AVC
Формат/Информация : Advanced Video Codec
Профиль формата : High@L4.1
Параметр CABAC формата : Да
Параметр RefFrames формата : 4 кадра
Идентификатор кодека : V_MPEG4/ISO/AVC
Продолжительность : 1 ч. 15 м.
Вид битрейта : Переменный
Битрейт : 4709 Кбит/сек
Максимальный битрейт : 5500 Кбит/сек
Ширина : 1280 пикселей
Высота : 688 пикселей
Соотношение сторон : 1,85:1
Режим частоты кадров : Постоянный
Частота кадров : 23,976 (24000/1001) кадра/сек
Стандарт вещания : Component
Цветовое пространство : YUV
Субдискретизация насыщенности : 4:2:0
Битовая глубина : 8 бит
Тип развёртки : Прогрессивная
Бит/(Пиксели*Кадры) : 0.218
Размер потока : 2,43 Гбайт (90%)
Default : Да
Forced : Нет
Цветовой диапазон : Limited
Основные цвета : BT.709
Характеристики трансфера : BT.709
Коэффициенты матрицы : BT.709

Аудио
Идентификатор : 2
Формат : AC-3
Формат/Информация : Audio Coding 3
Расширение режима : CM (complete main)
Параметр Endianness формата : Big
Идентификатор кодека : A_AC3
Продолжительность : 1 ч. 15 м.
Вид битрейта : Постоянный
Битрейт : 384 Кбит/сек
Каналы : 2 канала
Расположение каналов : Front: L R
Частота : 48,0 КГц
Частота кадров : 31,250 кадров/сек (1536 spf)
Метод сжатия : С потерями
Размер потока : 207 Мбайт (8%)
Default : Да
Forced : Нет

pb.wtf



Скачать Инопланетный психоз через торрент http://img12.lostpic.net/2018/05/30/b07a80783fab289c02023086e0d05d05.jpg Скачать фильм Инопланетный психоз через торрент бесплантно в хорошем качестве Описание: Райан О'Нил, ветеран войны, страдающий от ранения получивший в бою, возвращается домой к своей беременной жене Стефани. Ее брат ... 8.2 10 5
Торрент: Зарегистрирован [2018-05-30 06:43] · скачан: 48 раз
Статус: T временная
Размер: 2.69 GB
Как cкачать? Как скачать Инопланетный психоз через торрент | qTorrent

% Раздел Тема Автор DL S | L
T Фильмы (мультфильмы) cо спонсором показа (Новинки AVI/MKV) [ 1.37 GB ] Инопланетный психоз / Alien Psychosis [2018 WEB-DLRip] MVO ["Синема УС"] bober100 Скачать
1 | 0

28-11-2019 20:33  

Отключить всю рекламу на сайте

30-05-2018 08:19 Инопланетный психоз Скачать торрент  

Описание просто отпад. Прям уже смотреть не насмотреться на очередной шедевр.

"...страдающий от ранения получивший в бою..."

а вот тут вообще класс

"ветеран войны... возвращающийся к свое беременной жене..."

Полгода на войне и вот тебе готовый ветеран. Или жену кто-то уже использовал? :)pb.wtf



    Дорогой пользователь! Огромная просьба, поблагодарите релизера, оцените раздачу и оставьте свои комментарий, если Вы скачали Инопланетный психоз через торрент бесплатно! Внесите свою лепту в развитие PiratBit!
    Комментировать посты могут только пользователи прошедшие не сложную регистрацию
    Показать сообщения:    

    Инопланетный психоз через торрент
    Скачать бесплатно Инопланетный психоз
    Инопланетный психоз скачать торрент
    Инопланетный психоз смотреть онлайн
    Cкачать фильм Инопланетный психоз бесплатно
    Инопланетный психоз скачать торрент в хорошем качестве
    Инопланетный психоз смотреть онлайн бесплатно в хорошем качестве


    Вы не можете начинать темы
    Вы не можете отвечать на сообщения
    Вы не можете редактировать свои сообщения
    Вы не можете удалять свои сообщения
    Вы не можете голосовать в опросах
    Вы не можете прикреплять файлы к сообщениям
    Вы можете скачивать файлы