Ссылка на приватное зеркало нашего сайта всего за 1$. Внимание количество ограничено!!!

2 сезон

iTunes

1 сезон

1

2 сезон

2 сезон

iTunes

1 сезон

RePack

30

Ultimate

ВАЖНО

ИГРА 18+

pack

RePack

MK11
pack

Забери бонус

RePack

jed

!!Акция!!

Alien_Rage

RePack

fifa19

RePack

Assassins Creed: Odyssey

RePack

NEED FOR SPEED™ PAYBACK

4 сезон

9 сезон

Бесстыжие 9 сезон

Все сериалы

все сериалы на PB.wtf

RePack

FAR CRY 5
  

Чёрные воды / Black Water (Павел Патрики) [2018, боевик, BD Remux 1080p] DVO [HiWay Grope] pb.wtf

Чёрные воды через торрент pb.wtf

Размер: 24.22 GB | Добавлен: 2 года 5 мес. назад | Торрент скачан:26 раз
Скачать  

30-05-2018 07:57 Чёрные воды Скачать торрент  

Чёрные воды / Black Water
Год выпуска: 2018
Страна: США, Канада
Жанр: боевик
Продолжительность: 01:44:35
Перевод: Любительский (двухголосый) | HiWay Grope
Субтитры: отсутствуют

Режиссер: Павел Патрики

rating

В ролях:

Аарон О Коннелл, Дольф Лундгрен, Жан-Клод Ван Дамм, Пэтрик Килпэтрик, Ал Сапиенца, Джасмин Уолтц, Джон Пози, Кристофер Ван Варенберг, Кортни Би Турк,

Описание:

Глубоко законспирированный агент под прикрытием приходит в себя на подводной лодке ЦРУ.

Качество: BD Remux 1080p
Формат: MKV

Видео: MPEG-4 AVC, 35.0 Mбит/с, 1920x1080, 23,976 кадр/с
Аудио#1: Русский (AC3, 2 ch, 192 Кбит/с) / Любительский двухголосый (HiWay Grope)
Аудио#2: Английский (DTS-HD MA, 6 ch, 1920 Кбит/с)
скриншот   скриншот   скриншот   скриншот   скриншот  


General
Unique ID : 27309187845925891628734609322839132128 (0x148B8EEA51DEAD6A299A0F3535B447E0)
Complete name : D:uTorrentBlack.Water.2018.BDRemux.1080p.MediaClub.mkv
Format : Matroska
Format version : Version 4 / Version 2
File size : 24.2 GiB
Duration : 1 h 44 min
Overall bit rate mode : Variable
Overall bit rate : 33.1 Mb/s
Encoded date : UTC 2018-05-29 20:26:14
Writing application : mkvmerge v19.0.0 ('Brave Captain') 64-bit
Writing library : libebml v1.3.5 + libmatroska v1.4.8
Cover : Yes
Attachments : cover.jpg

Video
ID : 1
Format : AVC
Format/Info : Advanced Video Codec
Format profile : High@L4.1
Format settings : CABAC / 3 Ref Frames
Format settings, CABAC : Yes
Format settings, RefFrames : 3 frames
Codec ID : V_MPEG4/ISO/AVC
Duration : 1 h 44 min
Bit rate mode : Variable
Bit rate : 31.0 Mb/s
Nominal bit rate : 35.0 Mb/s
Maximum bit rate : 35.0 Mb/s
Width : 1 920 pixels
Height : 1 080 pixels
Display aspect ratio : 16:9
Frame rate mode : Constant
Frame rate : 23.976 (24000/1001) FPS
Standard : NTSC
Color space : YUV
Chroma subsampling : 4:2:0
Bit depth : 8 bits
Scan type : Progressive
Bits/(Pixel*Frame) : 0.624
Stream size : 22.7 GiB (94%)
Title : BDRemux.1080p by Silverok
Writing library : x264pro - Adobe CS Exporter Plug-in
Encoding settings : cabac=1 / ref=4 / deblock=1:-1:-1 / analyse=0x3:0x113 / me=umh / subme=8 / psy=1 / psy_rd=1.00:0.15 / mixed_ref=1 / me_range=16 / chroma_me=1 / trellis=1 / 8x8dct=1 / cqm=0 / deadzone=21,11 / fast_pskip=1 / chroma_qp_offset=-3 / threads=36 / lookahead_threads=6 / sliced_threads=0 / slices=4 / nr=0 / decimate=1 / interlaced=0 / bluray_compat=1 / constrained_intra=0 / bframes=3 / b_pyramid=1 / b_adapt=2 / b_bias=0 / direct=3 / weightb=1 / open_gop=0 / weightp=1 / keyint=24 / keyint_min=1 / scenecut=40 / intra_refresh=0 / rc_lookahead=24 / rc=cbr / mbtree=1 / bitrate=35000 / ratetol=1.0 / qcomp=0.60 / qpmin=0 / qpmax=69 / qpstep=4 / vbv_maxrate=35000 / vbv_bufsize=30000 / nal_hrd=vbr / ip_ratio=1.40 / aq=1:1.00
Default : Yes
Forced : No
Color range : Limited
Color primaries : BT.709
Transfer characteristics : BT.709
Matrix coefficients : BT.709

Audio #1
ID : 2
Format : AC-3
Format/Info : Audio Coding 3
Codec ID : A_AC3
Duration : 1 h 44 min
Bit rate mode : Constant
Bit rate : 192 kb/s
Channel(s) : 2 channels
Channel positions : Front: L R
Sampling rate : 48.0 kHz
Frame rate : 31.250 FPS (1536 SPF)
Bit depth : 16 bits
Compression mode : Lossy
Stream size : 144 MiB (1%)
Title : Любительский (двухголосый закадровый) HiWay Grope
Language : Russian
Service kind : Complete Main
Default : Yes
Forced : No

Audio #2
ID : 3
Format : DTS
Format/Info : Digital Theater Systems
Format profile : MA / Core
Codec ID : A_DTS
Duration : 1 h 44 min
Bit rate mode : Variable / Constant
Bit rate : 1 920 kb/s / 1 509 kb/s
Channel(s) : 6 channels
Channel positions : Front: L C R, Side: L R, LFE
Sampling rate : 48.0 kHz
Frame rate : 93.750 FPS (512 SPF)
Bit depth : 16 bits
Compression mode : Lossless / Lossy
Stream size : 1.40 GiB (6%)
Language : English
Default : No
Forced : No

Menu
00:00:00.000 : en:Chapter 01
00:16:00.292 : en:Chapter 02
00:27:36.237 : en:Chapter 03
00:45:27.808 : en:Chapter 04
00:55:15.854 : en:Chapter 05
01:05:08.654 : en:Chapter 06
01:16:59.364 : en:Chapter 07
01:36:06.969 : en:Chapter 08

pb.wtf



Скачать Чёрные воды через торрент http://img12.lostpic.net/2018/05/30/87d6e4fd006eccb1f7a05bb314e1fb58.jpg Скачать фильм Чёрные воды через торрент бесплантно в хорошем качестве Описание: Глубоко законспирированный агент под прикрытием приходит в себя на подводной лодке ... 10 10 3
Info! Золотая раздача, скачанное не засчитывается.
Торрент: Зарегистрирован [2018-05-30 07:57] · скачан: 26 раз
Статус: T временная
Размер: 24.22 GB
Как cкачать? Как скачать Чёрные воды через торрент | qTorrent

% Раздел Тема Автор DL S | L
Фильмы 2018 [DVDrip, WEB-DLRip, HDrip] (DUB, MVO) [ 1.42 GB ] Чёрные воды / Black Water [2018 BDRip] MVO Twi7ter Скачать
7 | 0
Фильмы [HD 720p, 1080p] (Хороший звук DUB, MVO) [ 12 GB ] Чёрные воды / Black Water [2018 BDRip 1080p] [MVO] () + [MVO] + [DVO] killermax2013 Скачать
1 | 0
# Фильмы (мультфильмы) cо спонсором показа (Новинки AVI/MKV) [ 9.58 GB ] Чёрные воды / Black Water [2018 BDRip 1080p] DUB [Line] bober100 Скачать
1 | 0
# Фильмы (мультфильмы) cо спонсором показа (Новинки AVI/MKV) [ 5.55 GB ] Чёрные воды / Black Water [2018 BDRip 720p] DUB [Line] bober100 Скачать
1 | 0
Фильмы 2018 [DVDrip, WEB-DLRip, HDrip] (DUB, MVO) [ 1.46 GB ] Чёрные воды / Black Water [2018 BDRip] MVO bober100 Скачать
2 | 0
T Фильмы 2018 [DVDrip, WEB-DLRip, HDrip] (DUB, MVO) [ 1.98 GB ] Чёрные воды / Black Water [2018 BDRip-AVC] MVO [HDRezka Studio] - ExKinoRay Enigma2010 Скачать
1 | 0
T Фильмы [HD 720p, 1080p] (Хороший звук DUB, MVO) [ 5.26 GB ] Чёрные воды / Black Water [2018 BDRip 720p] MVO [HDRezka Studio] bober100 Скачать
1 | 0

28-11-2019 20:33  

Отключить всю рекламу на сайте

    Дорогой пользователь! Огромная просьба, поблагодарите релизера, оцените раздачу и оставьте свои комментарий, если Вы скачали Чёрные воды через торрент бесплатно! Внесите свою лепту в развитие PiratBit!
    Комментировать посты могут только пользователи прошедшие не сложную регистрацию
    Показать сообщения:    

    Чёрные воды через торрент
    Скачать бесплатно Чёрные воды
    Чёрные воды скачать торрент
    Чёрные воды смотреть онлайн
    Cкачать фильм Чёрные воды бесплатно
    Чёрные воды скачать торрент в хорошем качестве
    Чёрные воды смотреть онлайн бесплатно в хорошем качестве


    Вы не можете начинать темы
    Вы не можете отвечать на сообщения
    Вы не можете редактировать свои сообщения
    Вы не можете удалять свои сообщения
    Вы не можете голосовать в опросах
    Вы не можете прикреплять файлы к сообщениям
    Вы можете скачивать файлы