Лицензия

MVO

1

1 сезон

Лицензия

Лицензия

13

MVO

1 сезон

Ultimate

pack

Рекомендуем

30

Repack

ВАЖНО

ВАЖНО

Ghostwire

RePack

jed

RePack

fifa19

RePack

RDR2

RePack

NEED FOR SPEED™ PAYBACK

RePack

Кинопоиск HD

 Острые козырьки 6 сезон

6 сезон

FAR CRY 6

RePack

Лицензия

MVO

1

1 сезон

1 сезон

Лицензия

  

Любимые / The Loved Ones (Шон Бирн) [2009, ужасы, триллер, BDRip 1080p by msltel] MVO, VO

Любимые через торрент pb.wtf

Размер: 9.08 GB | Добавлен: 4 года 4 мес. назад | Торрент скачан:33 раза
Смотреть онлайн Любимые | Скачать   

30-05-2018 11:29 Любимые Скачать торрент  

Название: Любимые
Оригинальное название: The Loved Ones
Год выпуска: 2009
Страна: Австралия
Жанр: ужасы, триллер
Продолжительность: 01:24:05
Перевод: закадровый многоголосый, закадровый одноголосый

Режиссер: Шон Бирн
В ролях: Ксавьер Сэмюэл, Робин МакЛиви, Виктория Тейн, Джессика МакНэми, Ричард Уилсон, Джон Брамптон, Эндрю С. Гилберт, Сьюзи Догерти, Виктория Иггер, Энн Скотт-Пендлбёри, Фред Уитлок, Лео Тейлор, Брэндон Барнс, Стивен Уолден, Игорь Савин, Иден Портер, Том Махони, Гулливер МакГрат, Стиви-Лу Ансверт, Лайам Даксбери

О фильме: Брент Митчелл отказался идти с Лолой на выпускной. Очень зря, ибо она с помощью своего папаши-психопата похищает Брента и устраивает свой собственный выпускной...



Качество: BDRip 1080p
Формат: MKV
Видео: MPEG-4 AVC, 12 Mбит/с, 1920x800, 24.000 кадр/с
Аудио 1: русский, DTS, 1509 kbps, 6 ch, 48 kHz [закадровый многоголосый, СВ Студия]
Аудио 2: русский, AC3, 448 kbps, 6 ch, 48 kHz [закадровый одноголосый, Acolith]
Аудио 3: английский, DTS, 1509 kbps, 6 ch, 48 kHz [оригинал]
Субтитры 1: русские
Субтитры 2: английские
Главы/чаптеры
Общее
Уникальный идентификатор : 192448601985638899688159046853487498345 (0x90C840A5EF3E9A679B9697F413641469)
Полное имя : D:\Video\Любимые.2009.BDRip.1080p by msltel.mkv
Формат : Matroska
Версия формата : Version 4 / Version 2
Размер файла : 9,08 Гбайт
Продолжительность : 1 ч. 24 м.
Общий поток : 15,5 Мбит/сек
Название фильма : Rip by msltel
Дата кодирования : UTC 2018-05-29 02:32:36
Программа кодирования : mkvmerge v8.2.0 ('World of Adventure') 64bit
Библиотека кодирования : libebml v1.3.1 + libmatroska v1.4.2

Видео
Идентификатор : 1
Формат : AVC
Формат/Информация : Advanced Video Codec
Профиль формата : [email protected]
Настройки формата : CABAC / 4 Ref Frames
Параметр CABAC формата : Да
Параметр RefFrames формата : 4 кадра
Идентификатор кодека : V_MPEG4/ISO/AVC
Продолжительность : 1 ч. 24 м.
Битрейт : 12,0 Мбит/сек
Ширина : 1920 пикселей
Высота : 800 пикселей
Соотношение сторон : 2,40:1
Режим частоты кадров : Постоянный
Частота кадров : 24,000 кадра/сек
Цветовое пространство : YUV
Субдискретизация насыщенности : 4:2:0
Битовая глубина : 8 бит
Тип развёртки : Прогрессивная
Бит/(Пиксели*Кадры) : 0.325
Размер потока : 7,04 Гбайт (78%)
Библиотека кодирования : x264 core 146 r2538 121396c
Настройки программы : cabac=1 / ref=4 / deblock=1:-3:-2 / analyse=0x3:0x113 / me=umh / subme=11 / psy=1 / psy_rd=1.00:0.15 / mixed_ref=1 / me_range=32 / chroma_me=1 / trellis=2 / 8x8dct=1 / cqm=0 / deadzone=21,11 / fast_pskip=0 / chroma_qp_offset=-3 / threads=6 / lookahead_threads=1 / sliced_threads=0 / nr=0 / decimate=1 / interlaced=0 / bluray_compat=0 / constrained_intra=0 / bframes=6 / b_pyramid=2 / b_adapt=2 / b_bias=0 / direct=1 / weightb=1 / open_gop=0 / weightp=2 / keyint=230 / keyint_min=23 / scenecut=40 / intra_refresh=0 / rc_lookahead=40 / rc=crf / mbtree=0 / crf=16.8 / qcomp=0.60 / qpmin=0 / qpmax=69 / qpstep=4 / vbv_maxrate=62500 / vbv_bufsize=78125 / crf_max=0.0 / nal_hrd=none / filler=0 / ip_ratio=1.40 / pb_ratio=1.30 / aq=1:1.00
Язык : English
Default : Да
Forced : Нет

Аудио #1
Идентификатор : 2
Формат : DTS
Формат/Информация : Digital Theater Systems
Идентификатор кодека : A_DTS
Продолжительность : 1 ч. 24 м.
Вид битрейта : Постоянный
Битрейт : 1509 Кбит/сек
Каналы : 6 каналов
Расположение каналов : Front: L C R, Side: L R, LFE
Частота : 48,0 КГц
Частота кадров : 93,750 кадра/сек (512 SPF)
Битовая глубина : 24 бит
Метод сжатия : С потерями
Размер потока : 908 Мбайт (10%)
Заголовок : MVO СВ Студия
Язык : Russian
Default : Да
Forced : Нет

Аудио #2
Идентификатор : 3
Формат : AC-3
Формат/Информация : Audio Coding 3
Идентификатор кодека : A_AC3
Продолжительность : 1 ч. 24 м.
Вид битрейта : Постоянный
Битрейт : 448 Кбит/сек
Каналы : 6 каналов
Расположение каналов : Front: L C R, Side: L R, LFE
Частота : 48,0 КГц
Частота кадров : 31,250 кадров/сек (1536 SPF)
Битовая глубина : 16 бит
Метод сжатия : С потерями
Размер потока : 269 Мбайт (3%)
Заголовок : закадровый одноголосый, Acolith
Язык : Russian
ServiceKind/String : Complete Main
Default : Нет
Forced : Нет

Аудио #3
Идентификатор : 4
Формат : DTS
Формат/Информация : Digital Theater Systems
Идентификатор кодека : A_DTS
Продолжительность : 1 ч. 24 м.
Вид битрейта : Постоянный
Битрейт : 1509 Кбит/сек
Каналы : 6 каналов
Расположение каналов : Front: L C R, Side: L R, LFE
Частота : 48,0 КГц
Частота кадров : 93,750 кадра/сек (512 SPF)
Битовая глубина : 16 бит
Метод сжатия : С потерями
Размер потока : 908 Мбайт (10%)
Заголовок : original
Язык : English
Default : Нет
Forced : Нет

Текст #1
Идентификатор : 5
Формат : UTF-8
Идентификатор кодека : S_TEXT/UTF8
Идентификатор кодека/Информация : UTF-8 Plain Text
Продолжительность : 1 ч. 9 м.
Битрейт : 25 бит/сек
ElementCount : 294
Размер потока : 12,9 Кбайт (0%)
Заголовок : русские
Язык : Russian
Default : Нет
Forced : Нет

Текст #2
Идентификатор : 6
Формат : UTF-8
Идентификатор кодека : S_TEXT/UTF8
Идентификатор кодека/Информация : UTF-8 Plain Text
Продолжительность : 1 ч. 12 м.
Битрейт : 20 бит/сек
ElementCount : 425
Размер потока : 10,7 Кбайт (0%)
Заголовок : английские
Язык : English
Default : Нет
Forced : Нет

Меню
00:00:00.000 : :Chapter 01
00:07:27.833 : :Chapter 02
00:14:55.333 : :Chapter 03
00:22:12.958 : :Chapter 04
00:35:42.750 : :Chapter 05
00:40:11.791 : :Chapter 06
00:45:09.416 : :Chapter 07
00:52:23.041 : :Chapter 08
01:01:55.458 : :Chapter 09
01:08:13.958 : :Chapter 10
01:11:30.250 : :Chapter 11
01:18:37.041 : :Chapter 12
01:24:04.041 : :Chapter 13



Скачать Любимые через торрент https://c.radikal.ru/c36/1805/88/f7df73bdc666.jpg Скачать, смотреть онлайн Любимые бесплантно в хорошем качестве О фильме: Брент Митчелл отказался идти с Лолой на выпускной. Очень зря, ибо она с помощью своего папаши-психопата похищает Брента и ... 10 10 2
Info! Золотая раздача, скачанное не засчитывается.
Торрент: Зарегистрирован [2018-05-30 11:29] · скачан: 33 раз
Статус: √ проверено
Размер: 9.08 GB
Как cкачать? Как скачать Любимые через торрент | UTorrent

% Раздел Тема Автор DL S | L
Фильмы [HD 720p, 1080p] (Хороший звук DUB, MVO) [ 3.44 GB ] Любимые / The Loved Ones | MVO | 720p by msltel msltel Скачать
1 | 0

28-11-2019 20:33  

Отключить вcю реклaмy на сайте

    Дорогой пользователь! Огромная просьба, поблагодарите релизера, оцените раздачу и оставьте свои комментарий, если Вы скачали Любимые через торрент бесплатно!!
    Комментировать посты могут только пользователи прошедшие не сложную регистрацию
    Показать сообщения:    


    Любимые через торрент
    Скачать бесплатно Любимые
    Любимые скачать торрент
    Любимые смотреть онлайн
    Cкачать фильм Любимые бесплатно
    Любимые скачать торрент в хорошем качестве
    Любимые смотреть онлайн бесплатно в хорошем качестве
    Вы не можете начинать темы
    Вы не можете отвечать на сообщения
    Вы не можете редактировать свои сообщения
    Вы не можете удалять свои сообщения
    Вы не можете голосовать в опросах
    Вы не можете прикреплять файлы к сообщениям
    Вы можете скачивать файлы