Ссылка на приватное зеркало всего за 1$. Внимание количество ограничено!!!

OK

1+1

iTunes

мы

OK

1

WEB-DLRip

Джокер

Пифагор

Ведьмак / The Witcher сериал

iTunes

ПШазам

ОК

Оно 2

iTunes

30
pack

Вам бонус

ВАЖНО

!!Акция!!

Alien_RageХит недели

RePack

Resident Evil 21

ИГРА 18+

pack

RePack

jed

RePack

fifa19

RePack

Assassins Creed: Odyssey

RePack

NEED FOR SPEED™ PAYBACK

4 сезон

9 сезон

Бесстыжие 9 сезон

Все сериалы

все сериалы на PB.wtf

RePack

FAR CRY 5
  

Неугомонные / I cormorani (Фабио Бобби) [2016, Приключения, WEB-DL 720p] MVO ["Синема УС"] pb.wtf

Неугомонные через торрент pb.wtf

Размер: 2.78 GB | Добавлен: 1 год 7 мес. назад | Торрент скачан:21 раз
Скачать  

30-05-2018 15:59 Неугомонные Скачать торрент  

Неугомонные / I cormoraniГод выпуска: 2016
Страна: Италия
Жанр: Приключения
Продолжительность: 01:23:52
Перевод: Любительский (многоголосый) | "Синема УС"
Субтитры: отсутствуют

Режиссер: Фабио Бобби

rating

В ролях:

Самуэле Бони, Маттео Турри, Валентина Падован

Описание:

Два мальчика проводят лето, бродя по загородным окрестностям. Пустынные дороги, рощи. Томные солнечные лучи падают на них, и каждый новый день приносит новые удивительные открытия. И пока тянется это бесконечное лето, которому, кажется, нет ни конца, ни края, мальчикам открывается глубина уз, связывающих их между собой.

Качество: WEB-DL 720p
Формат: MKV

Видео: h.264, 4 355 kb/s, 1280x656
Аудио#1: Русский, (AC3, 2 ch, 384 Кбит/с)
скриншот  скриншот  скриншот  

Общее
Уникальный идентификатор : 227220241439851224979327355917899132393 (0xAAF106D58C66FAB1BCA922534BEBEDE9)
Полное имя : F:\I.Cormorani.2016.P.WEB-DL.72Op_KOSHARA.mkv
Формат : Matroska
Версия формата : Version 2
Размер файла : 2,78 Гбайт
Продолжительность : 1 ч. 23 м.
Режим общего битрейта : Переменный
Общий поток : 4741 Кбит/сек
Дата кодирования : UTC 2018-05-30 00:50:48
Программа кодирования : mkvmerge v8.3.0 ('Over the Horizon') 64bit
Библиотека кодирования : libebml v1.3.1 + libmatroska v1.4.2

Видео
Идентификатор : 1
Формат : AVC
Формат/Информация : Advanced Video Codec
Профиль формата : High@L4.1
Параметр CABAC формата : Да
Параметр RefFrames формата : 4 кадра
Идентификатор кодека : V_MPEG4/ISO/AVC
Продолжительность : 1 ч. 23 м.
Вид битрейта : Переменный
Битрейт : 4355 Кбит/сек
Максимальный битрейт : 5000 Кбит/сек
Ширина : 1280 пикселей
Высота : 656 пикселей
Соотношение сторон : 1,951
Режим частоты кадров : Постоянный
Частота кадров : 23,976 (24000/1001) кадра/сек
Стандарт вещания : Component
Цветовое пространство : YUV
Субдискретизация насыщенности : 4:2:0
Битовая глубина : 8 бит
Тип развёртки : Прогрессивная
Бит/(Пиксели*Кадры) : 0.212
Размер потока : 2,50 Гбайт (90%)
Default : Да
Forced : Нет
Цветовой диапазон : Limited
Основные цвета : BT.709
Характеристики трансфера : BT.709
Коэффициенты матрицы : BT.709

Аудио
Идентификатор : 2
Формат : AC-3
Формат/Информация : Audio Coding 3
Расширение режима : CM (complete main)
Параметр Endianness формата : Big
Идентификатор кодека : A_AC3
Продолжительность : 1 ч. 23 м.
Вид битрейта : Постоянный
Битрейт : 384 Кбит/сек
Каналы : 2 канала
Расположение каналов : Front: L R
Частота : 48,0 КГц
Частота кадров : 31,250 кадров/сек (1536 spf)
Метод сжатия : С потерями
Размер потока : 230 Мбайт (8%)
Default : Да
Forced : Нет

pb.wtf



Скачать Неугомонные через торрент http://img12.lostpic.net/2018/05/30/778720cafc301357b42cf1938a63e950.jpg Скачать фильм Неугомонные через торрент бесплантно в хорошем качестве Описание: Два мальчика проводят лето, бродя по загородным окрестностям. Пустынные дороги, рощи. Томные солнечные лучи падают на них, и ... 7 10 3
Торрент: Зарегистрирован [2018-05-30 15:59] · скачан: 21 раз
Статус: T временная
Размер: 2.78 GB
Как cкачать? Как скачать Неугомонные через торрент | qTorrent

% Раздел Тема Автор DL S | L
T Фильмы (мультфильмы) cо спонсором показа (Новинки AVI/MKV) [ 1.37 GB ] Неугомонные / I cormorani [2016 WEB-DLRip] MVO ["Синема УС"] bober100 Скачать
1 | 0

28-11-2019 20:33  

Отключить всю рекламу на сайте

30-05-2018 16:23 Неугомонные Скачать торрент  

Фильм про детскую педерастию?pb.wtf



31-05-2018 08:02 Неугомонные Скачать торрент  

Походу очередной томный шедевр "Горбатая гора".pb.wtf



    Дорогой пользователь! Огромная просьба, поблагодарите релизера, оцените раздачу и оставьте свои комментарий, если Вы скачали Неугомонные через торрент бесплатно! Внесите свою лепту в развитие PiratBit!
    Комментировать посты могут только пользователи прошедшие не сложную регистрацию
    Показать сообщения:    

    Неугомонные через торрент
    Скачать бесплатно Неугомонные
    Неугомонные скачать торрент
    Неугомонные смотреть онлайн
    Cкачать фильм Неугомонные бесплатно
    Неугомонные скачать торрент в хорошем качестве
    Неугомонные смотреть онлайн бесплатно в хорошем качестве


    Вы не можете начинать темы
    Вы не можете отвечать на сообщения
    Вы не можете редактировать свои сообщения
    Вы не можете удалять свои сообщения
    Вы не можете голосовать в опросах
    Вы не можете прикреплять файлы к сообщениям
    Вы можете скачивать файлы