Ссылка на приватное зеркало нашего сайта всего за 1$. Внимание количество ограничено!!!

2 сезон

iTunes

1 сезон

1

2 сезон

2 сезон

iTunes

1 сезон

RePack

30

Новинка

ВАЖНО

ИГРА 18+

pack

RePack

MK11
pack

Забери бонус

RePack

jed

!!Акция!!

Alien_Rage

RePack

fifa19

RePack

Assassins Creed: Odyssey

RePack

NEED FOR SPEED™ PAYBACK

4 сезон

9 сезон

Бесстыжие 9 сезон

Все сериалы

все сериалы на PB.wtf

RePack

FAR CRY 5
  

Террор / The Terror / Сезон: 1 / Серии: 1-10 из 10 (Тим Милантс, Эдвард Бергер, Серджо Мимика-Геззан) [2018, ужасы, драма, WEB-DL 1080p] MVO [AMC] pb.wtf

Террор через торрент pb.wtf

Размер: 32 GB | Добавлен: 2 года 6 мес. назад | Торрент скачан:63 раза
Скачать  

30-05-2018 18:01 Террор Скачать торрент  

Террор / The Terror
Информация о фильме:

Название: Террор
Оригинальное название: The Terror
Год выпуска: 2018 \(1 сезон\)
Страна: США / EMJAG Productions, Entertainment 360, Scott Free Productions
Жанр: ужасы, драма
Продолжительность: ~ 00:45:00 серия
Перевод: Профессиональный многоголосый | AMC
Субтитры: English

Режиссер: Тим Милантс, Эдвард Бергер, Серджо Мимика-Геззан

rating

В ролях:

Джаред Харрис, Киран Хайндс, Тобайас Мензис, Крис Корригэн, Иэн Харт, Кристос Лоутон, Мэттью МакНалти, Адам Нагаитис, Нив Нилсен, Пол Рэди

Описание:

В 1845 году экспедиция под командованием опытного полярного исследователя сэра Джона Франклина отправляется на судах «Террор» и «Эребус» к северному побережью Канады на поиск Северо-Западного прохода из Атлантического океана в Тихий - и бесследно исчезает. Поиски ее затянулись на несколько десятилетий, сведения о ее судьбе собирались буквально по крупицам, и до сих пор картина происшедшего пестрит белыми пятнами... Дэн Симмонс, знаменитый автор «Гипериона» и «Эндимиона», «Илиона» и «Олимпа», «Песни Кали» и «Темной игры смерти», предлагает свою версию событий: главную угрозу для экспедиции составляли не сокрушительные объятия льда, не стужа с вьюгой и не испорченные консервы - а неведомое исполинское чудовище, будто сотканное из снега и полярного мрака.

Информация о файле:

Качество: WEB-DL 1080p
Формат: MKV

Видео: ~ 7 300 kbps, 1920x1080 (16:9), 23.976 fps
Аудио#1 RUS: AC3, 48 KHz, 6 ch, 640 kbps
Аудио#2 ENG: EAC3, 48 KHz, 6 ch, 640 kbps


скриншот   скриншот   скриншот   скриншот  

Общее
Уникальный идентификатор : 117311489343400418400183820100482366261 (0x58415EFAD1F5EFBA92440A040553FB35)
Полное имя : F:\The.Terror.S01.1080p.WEBRip.H264.DD.5.1.Ru.En\The.Terror.S01E01.1080p.AMZN.WEB-DL.DD+5.1 H.264.Ru.En.mkv
Формат : Matroska
Версия формата : Version 4 / Version 2
Размер файла : 2,77 Гбайт
Продолжительность : 46 м. 58 с.
Режим общего битрейта : Переменный
Общий поток : 8442 Кбит/сек
Дата кодирования : UTC 2018-03-29 16:27:22
Программа кодирования : mkvmerge v19.0.0 ('Brave Captain') 64-bit
Библиотека кодирования : libebml v1.3.5 + libmatroska v1.4.8

Видео
Идентификатор : 1
Формат : AVC
Формат/Информация : Advanced Video Codec
Профиль формата : High@L4
Параметр CABAC формата : Да
Параметр RefFrames формата : 4 кадра
Идентификатор кодека : V_MPEG4/ISO/AVC
Продолжительность : 46 м. 58 с.
Вид битрейта : Переменный
Битрейт : 7160 Кбит/сек
Максимальный битрейт : 15,0 Мбит/сек
Ширина : 1920 пикселей
Высота : 1080 пикселей
Соотношение сторон : 16:9
Режим частоты кадров : Постоянный
Частота кадров : 23,976 (24000/1001) кадра/сек
Цветовое пространство : YUV
Субдискретизация насыщенности : 4:2:0
Битовая глубина : 8 бит
Тип развёртки : Прогрессивная
Бит/(Пиксели*Кадры) : 0.144
Размер потока : 2,35 Гбайт (85%)
Заголовок : The Terror S01E01 1080p AMZN WEB-DL DD+ 5.1 H.264-DEFLATE | TiTBiT
Язык : English
Default : Да
Forced : Нет
Цветовой диапазон : Limited
Основные цвета : BT.709
Характеристики трансфера : BT.709
Коэффициенты матрицы : BT.709

Аудио #1
Идентификатор : 2
Формат : AC-3
Формат/Информация : Audio Coding 3
Расширение режима : CM (complete main)
Параметр Endianness формата : Big
Идентификатор кодека : A_AC3
Продолжительность : 46 м. 58 с.
Вид битрейта : Постоянный
Битрейт : 640 Кбит/сек
Каналы : 6 каналов
Расположение каналов : Front: L C R, Side: L R, LFE
Частота : 48,0 КГц
Частота кадров : 31,250 кадров/сек (1536 spf)
Метод сжатия : С потерями
Размер потока : 215 Мбайт (8%)
Заголовок : Russian DD 5.1 640 kbps [AMC]
Язык : Russian
Default : Да
Forced : Нет

Аудио #2
Идентификатор : 3
Формат : E-AC-3
Формат/Информация : Audio Coding 3
Параметр Endianness формата : Big
Идентификатор кодека : A_EAC3
Продолжительность : 46 м. 58 с.
Вид битрейта : Постоянный
Битрейт : 640 Кбит/сек
Каналы : 6 каналов
Расположение каналов : Front: L C R, Side: L R, LFE
Частота : 48,0 КГц
Частота кадров : 187,500 кадров/сек (256 spf)
Метод сжатия : С потерями
Размер потока : 215 Мбайт (8%)
Заголовок : English DD 5.1 640 kbps
Язык : English
Default : Нет
Forced : Нет

Текст
Идентификатор : 4
Формат : UTF-8
Идентификатор кодека : S_TEXT/UTF8
Идентификатор кодека/Информация : UTF-8 Plain Text
Продолжительность : 44 м. 52 с.
Битрейт : 54 бит/сек
ElementCount : 540
Размер потока : 18,0 Кбайт (0%)
Заголовок : English @ SRT
Язык : English
Default : Нет
Forced : Нет

pb.wtf



Скачать Террор через торрент https://i99.fastpic.ru/big/2018/0327/12/86c80b88dfc86fb8d95f68b05b3f3f12.jpg Скачать фильм Террор через торрент бесплантно в хорошем качестве Описание: В 1845 году экспедиция под командованием опытного полярного исследователя сэра Джона Франклина отправляется на судах «Террор» и ... 10 10 5
Info! Золотая раздача, скачанное не засчитывается.
Торрент: Зарегистрирован [2018-05-30 18:01] · скачан: 63 раз
Статус: √ проверено
Размер: 32 GB
Как cкачать? Как скачать Террор через торрент | qTorrent

% Раздел Тема Автор DL S | L
Зарубежные сериалы [ 17.77 GB ] Террор / The Terror / Сезон: 2 / Серия: 1-10 из 10 [2019 история WEB-DL 720p] 4x[MVO] killermax2013 Скачать
1 | 0
Зарубежные сериалы [ 28.24 GB ] Террор / The Terror / Сезон: 2 / Серии: 1-10 из 10 [2019 WEB-DL 1080p] MVO [AMS] bober100 Скачать
1 | 0
Зарубежные сериалы [ 8.75 GB ] Террор / The Terror / Сезон: 2 / Серии: 1-10 из 10 [2019 WEB-DLRip] [MVO] killermax2013 Скачать
1 | 0
Зарубежные сериалы [ 14.77 GB ] Террор / The Terror / Сезон: 2 / Серии: 1-10 из 10 [2019 WEBRip 720p] [DVO] killermax2013 Скачать
1 | 0
Зарубежные сериалы [ 7.34 GB ] Террор / The Terror / Сезон: 2 / Серии: 1-10 из 10 [2019 WEB-DLRip] MVO [TVShows] bober100 Скачать
1 | 0
Зарубежные сериалы [ 14.77 GB ] Террор / The Terror / Сезон: 2 / Серии: 1-10 из 10 [2019 WEB-DL 720p] MVO [LostFilm] bober100 Скачать
2 | 0
Зарубежные сериалы [ 14.24 GB ] Террор / The Terror / Сезон: 2 / Серии: 1-10 из 10 [2019 WEB-DL 720p] [MVO] killermax2013 Скачать
1 | 0

28-11-2019 20:33  

Отключить всю рекламу на сайте

    Дорогой пользователь! Огромная просьба, поблагодарите релизера, оцените раздачу и оставьте свои комментарий, если Вы скачали Террор через торрент бесплатно! Внесите свою лепту в развитие PiratBit!
    Комментировать посты могут только пользователи прошедшие не сложную регистрацию
    Показать сообщения:    

    Террор через торрент
    Скачать бесплатно Террор
    Террор скачать торрент
    Террор смотреть онлайн
    Cкачать фильм Террор бесплатно
    Террор скачать торрент в хорошем качестве
    Террор смотреть онлайн бесплатно в хорошем качестве


    Вы не можете начинать темы
    Вы не можете отвечать на сообщения
    Вы не можете редактировать свои сообщения
    Вы не можете удалять свои сообщения
    Вы не можете голосовать в опросах
    Вы не можете прикреплять файлы к сообщениям
    Вы можете скачивать файлы