Ссылка на приватное зеркало всего за 1$. Внимание количество ограничено!!!

OK

1+1

iTunes

мы

OK

1

WEB-DLRip

Джокер

Пифагор

Ведьмак / The Witcher сериал

iTunes

ПШазам

ОК

Оно 2

iTunes

30
pack

Вам бонус

ВАЖНО

!!Акция!!

Alien_RageХит недели

RePack

Resident Evil 21

ИГРА 18+

pack

RePack

jed

RePack

fifa19

RePack

Assassins Creed: Odyssey

RePack

NEED FOR SPEED™ PAYBACK

4 сезон

9 сезон

Бесстыжие 9 сезон

Все сериалы

все сериалы на PB.wtf

RePack

FAR CRY 5
  

Потерявшийся в Лондоне / Lost in London (Вуди Харрельсон) [2017, Комедия, драма, WEB-DL 1080p] MVO [@MUZOBOZ@] pb.wtf

Потерявшийся в Лондоне через торрент pb.wtf

Размер: 4.11 GB | Добавлен: 1 год 7 мес. назад | Торрент скачан:97 раз
Скачать  

30-05-2018 18:36 Потерявшийся в Лондоне Скачать торрент  

Потерявшийся в Лондоне / Lost in LondonГод выпуска: 2017
Страна: США, Великобритания
Жанр: Комедия, драма
Продолжительность: 01:45:42
Перевод: Любительский (многоголосый) | @MUZOBOZ@
Субтитры: отсутствуют

Режиссер: Вуди Харрельсон

rating

В ролях:

Вуди Харрельсон, Оуэн Уилсон, Луиза Харланд, Уилли Нельсон, Питер Фердинандо, Дэвид Крисанту, Мартин МакКанн, Элинор Мацуура, Амир Эль-Марси, Рики Чемп

Описание:

Путешествие актёра Вуди Харрельсона в Лондон оказывается весьма неудачным: в течение одной ночи он ввязывается в историю и оказывается за решёткой.

Качество: WEB-DL 1080p
Формат: MKV

Видео: h.264, 5 186 kb/s, 1280x1080
Аудио#1: Русский, (AC3, 2 ch, 384 Кбит/с)
скриншот  скриншот  скриншот  

Общее
Уникальный идентификатор : 187455150869141861953361212746377050243 (0x8D068C800C2CFBC785EC72B4D489B883)
Полное имя : F:\Lost.In.London.2017.P.WEB-DL.1O8Op_KOSHARA.mkv
Формат : Matroska
Версия формата : Version 2
Размер файла : 4,11 Гбайт
Продолжительность : 1 ч. 45 м.
Режим общего битрейта : Переменный
Общий поток : 5572 Кбит/сек
Дата кодирования : UTC 2018-05-30 04:14:07
Программа кодирования : mkvmerge v8.3.0 ('Over the Horizon') 64bit
Библиотека кодирования : libebml v1.3.1 + libmatroska v1.4.2

Видео
Идентификатор : 1
Формат : AVC
Формат/Информация : Advanced Video Codec
Профиль формата : High@L4.1
Параметр CABAC формата : Да
Параметр RefFrames формата : 4 кадра
Идентификатор кодека : V_MPEG4/ISO/AVC
Продолжительность : 1 ч. 45 м.
Вид битрейта : Переменный
Битрейт : 5186 Кбит/сек
Максимальный битрейт : 5900 Кбит/сек
Ширина : 1920 пикселей
Высота : 1080 пикселей
Соотношение сторон : 16:9
Режим частоты кадров : Постоянный
Частота кадров : 23,976 (24000/1001) кадра/сек
Стандарт вещания : Component
Цветовое пространство : YUV
Субдискретизация насыщенности : 4:2:0
Битовая глубина : 8 бит
Тип развёртки : Прогрессивная
Бит/(Пиксели*Кадры) : 0.102
Размер потока : 3,75 Гбайт (91%)
Default : Да
Forced : Нет
Цветовой диапазон : Limited
Основные цвета : BT.709
Характеристики трансфера : BT.709
Коэффициенты матрицы : BT.709

Аудио
Идентификатор : 2
Формат : AC-3
Формат/Информация : Audio Coding 3
Расширение режима : CM (complete main)
Параметр Endianness формата : Big
Идентификатор кодека : A_AC3
Продолжительность : 1 ч. 45 м.
Вид битрейта : Постоянный
Битрейт : 384 Кбит/сек
Каналы : 2 канала
Расположение каналов : Front: L R
Частота : 48,0 КГц
Частота кадров : 31,250 кадров/сек (1536 spf)
Метод сжатия : С потерями
Размер потока : 290 Мбайт (7%)
Default : Да
Forced : Нет

pb.wtf



Скачать Потерявшийся в Лондоне через торрент http://img12.lostpic.net/2018/05/30/ad1f92c7430106b73f1a2f77ab932985.jpg Скачать фильм Потерявшийся в Лондоне через торрент бесплантно в хорошем качестве Описание: Путешествие актёра Вуди Харрельсона в Лондон оказывается весьма неудачным: в течение одной ночи он ввязывается в историю и ... 10 10 3
Торрент: Зарегистрирован [2018-05-30 18:36] · скачан: 97 раз
Статус: T временная
Размер: 4.11 GB
Как cкачать? Как скачать Потерявшийся в Лондоне через торрент | qTorrent

% Раздел Тема Автор DL S | L
T Фильмы (мультфильмы) cо спонсором показа (Новинки AVI/MKV) [ 3.86 GB ] Потерявшийся в Лондоне / Lost in London [2017 WEB-DL 720p] MVO [@MUZOBOZ@] bober100 Скачать
1 | 0
T Фильмы (мультфильмы) cо спонсором показа (Новинки AVI/MKV) [ 1.37 GB ] Потерявшийся в Лондоне / Lost in London [2017 WEB-DLRip] MVO [@MUZOBOZ@] bober100 Скачать
1 | 0

28-11-2019 20:33  

Отключить всю рекламу на сайте

26-06-2018 10:41 Потерявшийся в Лондоне Скачать торрент  

Комедии нет, болтовни всякой много, короче фигня!pb.wtf



    Дорогой пользователь! Огромная просьба, поблагодарите релизера, оцените раздачу и оставьте свои комментарий, если Вы скачали Потерявшийся в Лондоне через торрент бесплатно! Внесите свою лепту в развитие PiratBit!
    Комментировать посты могут только пользователи прошедшие не сложную регистрацию
    Показать сообщения:    

    Потерявшийся в Лондоне через торрент
    Скачать бесплатно Потерявшийся в Лондоне
    Потерявшийся в Лондоне скачать торрент
    Потерявшийся в Лондоне смотреть онлайн
    Cкачать фильм Потерявшийся в Лондоне бесплатно
    Потерявшийся в Лондоне скачать торрент в хорошем качестве
    Потерявшийся в Лондоне смотреть онлайн бесплатно в хорошем качестве


    Вы не можете начинать темы
    Вы не можете отвечать на сообщения
    Вы не можете редактировать свои сообщения
    Вы не можете удалять свои сообщения
    Вы не можете голосовать в опросах
    Вы не можете прикреплять файлы к сообщениям
    Вы можете скачивать файлы