Всегда рабочее зеркало без VPN и Proxy просто перед .vidak.icu напиши любое слово или цифру, Пример http://q00p.vidak.icu

Лицензия

MVO

1 сезон

1

1 сезон

iTunes

1 сезон

13

1 сезон

Deluxe

pack

Рекомендуем

Repack

30

ВАЖНО

RePack

MK11

RePack

jed

RePack

fifa19

RePack

RDR2

RePack

NEED FOR SPEED™ PAYBACK

Кинопоиск HD

6 сезон

 Острые козырьки 6 сезон

Все сериалы

все сериалы на PB.wtf

RePack

FAR CRY 5
  
Magnet ссылка

Аннигиляция / Annihilation (Алекс Гарленд) [2018, Фантастика, фэнтези, ужасы, триллер, драма, детектив, приключения, UHD BDRip 2160p] 3xMVO + AVO [Яроцкий] pb.wtf

Аннигиляция через торрент pb.wtf

Размер: 13.74 GB | Добавлен: 4 года 2 мес. назад | Торрент скачан:173 раза
Смотреть онлайн Аннигиляция | Скачать    Ребята, помогите собрать деньги на оплату серверов!!!

31-05-2018 05:49 Аннигиляция Скачать торрент  

Аннигиляция / Annihilation

Год выпуска: 2017
Страна: Великобритания, США
Жанр: Фантастика, фэнтези, ужасы, триллер, драма, детектив, приключения
Продолжительность: 01:55:00
Перевод: Профессиональный многоголосый, авторский
Субтитры: Русские (Forced, full), английские (full, SDH), украинские (full)
Режиссер: Алекс Гарленд
В ролях:

Натали Портман (Lena), Бенедикт Вонг (Lomax), Соноя Мидзуно (Katie (Med Student)), Дэвид Гяси (Daniel), Оскар Айзек (Kane), Джон Шваб (Paramedic), Дженнифер Джейсон Ли (Dr. Ventress), Джина Родригез (Anya Thorensen), Тува Новотны (Cass Sheppard), Тесса Томпсон (Josie Radek), Сэмми Хейман (Mayer), Джош Дэнфорд (Shelley)
Описание:
Профессор биологии Лина уже год страдает от потери мужа-военного. Кейн отправился на очередное секретное задание, но так и не вернулся — жив ли, погиб — женщина не знает, пока однажды дезориентированный и слегка бледный супруг внезапно не появляется на пороге их спальни. Радость длится недолго — у мужчины начинаются судороги и множественные кровотечения, а по дороге в больницу машину скорой помощи тормозят военные. Лина приходит в себя на секретной базе рядом с той самой загадочной зоной, куда уже отправлялись многочисленные экспедиции, но вернулся, оказывается, только один человек — её Кейн.
Рейтинг:

Качество: UHD BDRip 2160p
Формат: MKV
Видео: HEVC, HDR, 10500 Кбит/с, 3840x1606, 23.976 Кадр/с
Аудио #1: AC-3, 48.0 kHz, 6 ch, 384 kb/s, CBR (Russian) | MVO [Jaskier]
Аудио #2: AC-3, 48.0 kHz, 6 ch, 384 kb/s, CBR (Russian) | MVO [NewStudio]
Аудио #3: AC-3, 48.0 kHz, 2 ch, 192 kb/s, CBR (Russian) | MVO [HDRezka Studio]
Аудио #4: AC-3, 48.0 kHz, 6 ch, 448 kb/s, CBR (Russian) | AVO [Яроцкий]
Аудио #5: AC-3, 48.0 kHz, 6 ch, 384 kb/s, CBR (Ukrainian) | MVO [НеЗупиняйПродакшн]
Аудио #6: AC-3, 48.0 kHz, 6 ch, 640 kb/s, CBR (English)
Аудио #7: Atmos / TrueHD, 48.0 kHz, 8 ch, 4062 kb/s, CBR (English)
Навигация по главам: есть
Общее
Уникальный идентификатор : 172621585088042881751865711614069156895 (0x81DDB53DF8C9E60D81F0B555EF81AC1F)
Полное имя : H:\Annihilation.2018.2160p.UHD.BluRay.x265.10bit.HDR.Master5.mkv
Формат : Matroska
Версия формата : Version 4 / Version 2
Размер файла : 13,7 Гбайт
Продолжительность : 1 ч. 55 м.
Режим общего битрейта : Переменный
Общий поток : 17,0 Мбит/сек
Название фильма : Annihilation.2018.2160p.UHD.BluRay.x265.10bit.HDR.Master5
Дата кодирования : UTC 2018-05-30 18:09:26
Программа кодирования : mkvmerge v8.1.0 ('Psychedelic Postcard') 32bit
Библиотека кодирования : libebml v1.3.1 + libmatroska v1.4.2
Обложка : Yes
Attachments : cover

Видео
Идентификатор : 1
Формат : HEVC
Формат/Информация : High Efficiency Video Coding
Профиль формата : Main [email protected]@High
Идентификатор кодека : V_MPEGH/ISO/HEVC
Продолжительность : 1 ч. 55 м.
Битрейт : 10,5 Мбит/сек
Ширина : 3840 пикселей
Высота : 1606 пикселей
Соотношение сторон : 2,40:1
Режим частоты кадров : Постоянный
Частота кадров : 23,976 (24000/1001) кадра/сек
Цветовое пространство : YUV
Субдискретизация насыщенности : 4:2:0 (Type 2)
Битовая глубина : 10 бит
Бит/(Пиксели*Кадры) : 0.071
Размер потока : 8,46 Гбайт (62%)
Заголовок : Annihilation.2018.2160p.UHD.BluRay.x265.10bit.HDR.Master5
Библиотека кодирования : x265 2.7+338-147b7dcee675:[Windows][GCC 6.3.0][64 bit] 10bit
Настройки программы : cpuid=1111039 / frame-threads=5 / numa-pools=36 / wpp / no-pmode / no-pme / no-psnr / no-ssim / log-level=2 / input-csp=1 / input-res=3840x1606 / interlace=0 / total-frames=165445 / level-idc=51 / high-tier=1 / uhd-bd=0 / ref=4 / no-allow-non-conformance / repeat-headers / annexb / aud / hrd / info / hash=0 / no-temporal-layers / no-open-gop / min-keyint=1 / keyint=24 / gop-lookahead=0 / bframes=4 / b-adapt=2 / b-pyramid / bframe-bias=0 / rc-lookahead=25 / lookahead-slices=4 / scenecut=40 / radl=0 / no-intra-refresh / ctu=64 / min-cu-size=8 / rect / no-amp / max-tu-size=32 / tu-inter-depth=1 / tu-intra-depth=1 / limit-tu=0 / rdoq-level=2 / dynamic-rd=0.00 / no-ssim-rd / signhide / no-tskip / nr-intra=0 / nr-inter=0 / no-constrained-intra / no-strong-intra-smoothing / max-merge=3 / limit-refs=3 / limit-modes / me=3 / subme=3 / merange=57 / temporal-mvp / weightp / no-weightb / no-analyze-src-pics / deblock=-3:-3 / no-sao / no-sao-non-deblock / rd=4 / no-early-skip / rskip / no-fast-intra / no-tskip-fast / no-cu-lossless / no-b-intra / no-splitrd-skip / rdpenalty=0 / psy-rd=2.00 / psy-rdoq=1.00 / no-rd-refine / no-lossless / cbqpoffs=0 / crqpoffs=0 / rc=crf / crf=17.0 / qcomp=0.60 / qpstep=4 / stats-write=0 / stats-read=0 / vbv-maxrate=160000 / vbv-bufsize=160000 / vbv-init=0.9 / crf-max=0.0 / crf-min=0.0 / ipratio=1.40 / pbratio=1.30 / aq-mode=1 / aq-strength=1.00 / cutree / zone-count=0 / no-strict-cbr / qg-size=32 / no-rc-grain / qpmax=69 / qpmin=0 / no-const-vbv / sar=1 / overscan=0 / videoformat=5 / range=0 / colorprim=9 / transfer=16 / colormatrix=9 / chromaloc=1 / chromaloc-top=2 / chromaloc-bottom=2 / display-window=0 / master-display=G(13250,34500)B(7500,3000)R(34000,16000)WP(15635,16450)L(10000000,1) / max-cll=0,0 / min-luma=0 / max-luma=1023 / log2-max-poc-lsb=8 / vui-timing-info / vui-hrd-info / slices=1 / no-opt-qp-pps / no-opt-ref-list-length-pps / no-multi-pass-opt-rps / scenecut-bias=0.05 / no-opt-cu-delta-qp / no-aq-motion / hdr / hdr-opt / no-dhdr10-opt / no-idr-recovery-sei / analysis-reuse-level=5 / scale-factor=0 / refine-intra=0 / refine-inter=0 / refine-mv=0 / no-limit-sao / ctu-info=0 / no-lowpass-dct / refine-mv-type=0 / copy-pic=1 / max-ausize-factor=1.0 / no-dynamic-refine / no-single-sei
Default : Да
Forced : Нет
Цветовой диапазон : Limited
Основные цвета : BT.2020
Характеристики трансфера : SMPTE ST 2084
Коэффициенты матрицы : BT.2020 non-constant
MasteringDisplay_ColorPrimaries : R: x=0.680000 y=0.320000, G: x=0.265000 y=0.690000, B: x=0.150000 y=0.060000, White point: x=0.312700 y=0.329000
MasteringDisplay_Luminance : min: 0.0001 cd/m2, max: 1000.0000 cd/m2

Аудио #1
Идентификатор : 2
Формат : AC-3
Формат/Информация : Audio Coding 3
Расширение режима : CM (complete main)
Параметр Endianness формата : Big
Идентификатор кодека : A_AC3
Продолжительность : 1 ч. 55 м.
Вид битрейта : Постоянный
Битрейт : 384 Кбит/сек
Каналы : 6 каналов
Расположение каналов : Front: L C R, Side: L R, LFE
Частота : 48,0 КГц
Частота кадров : 31,250 кадров/сек (1536 spf)
Метод сжатия : С потерями
Размер потока : 317 Мбайт (2%)
Заголовок : MVO Jaskier
Язык : Russian
Default : Да
Forced : Нет

Аудио #2
Идентификатор : 3
Формат : AC-3
Формат/Информация : Audio Coding 3
Расширение режима : CM (complete main)
Параметр Endianness формата : Big
Идентификатор кодека : A_AC3
Продолжительность : 1 ч. 55 м.
Вид битрейта : Постоянный
Битрейт : 384 Кбит/сек
Каналы : 6 каналов
Расположение каналов : Front: L C R, Side: L R, LFE
Частота : 48,0 КГц
Частота кадров : 31,250 кадров/сек (1536 spf)
Метод сжатия : С потерями
Размер потока : 317 Мбайт (2%)
Заголовок : MVO NewStudio
Язык : Russian
Default : Нет
Forced : Нет

Аудио #3
Идентификатор : 4
Формат : AC-3
Формат/Информация : Audio Coding 3
Расширение режима : CM (complete main)
Параметр Endianness формата : Big
Идентификатор кодека : A_AC3
Продолжительность : 1 ч. 55 м.
Вид битрейта : Постоянный
Битрейт : 192 Кбит/сек
Каналы : 2 канала
Расположение каналов : Front: L R
Частота : 48,0 КГц
Частота кадров : 31,250 кадров/сек (1536 spf)
Метод сжатия : С потерями
Размер потока : 159 Мбайт (1%)
Заголовок : MVO HDRezka Studio
Язык : Russian
Default : Нет
Forced : Нет

Аудио #4
Идентификатор : 5
Формат : AC-3
Формат/Информация : Audio Coding 3
Расширение режима : CM (complete main)
Параметр Endianness формата : Big
Идентификатор кодека : A_AC3
Продолжительность : 1 ч. 55 м.
Вид битрейта : Постоянный
Битрейт : 448 Кбит/сек
Каналы : 6 каналов
Расположение каналов : Front: L C R, Side: L R, LFE
Частота : 48,0 КГц
Частота кадров : 31,250 кадров/сек (1536 spf)
Метод сжатия : С потерями
Размер потока : 370 Мбайт (3%)
Заголовок : AVO Яроцкий
Язык : Russian
Default : Нет
Forced : Нет

Аудио #5
Идентификатор : 6
Формат : AC-3
Формат/Информация : Audio Coding 3
Расширение режима : CM (complete main)
Параметр Endianness формата : Big
Идентификатор кодека : A_AC3
Продолжительность : 1 ч. 55 м.
Вид битрейта : Постоянный
Битрейт : 384 Кбит/сек
Каналы : 6 каналов
Расположение каналов : Front: L C R, Side: L R, LFE
Частота : 48,0 КГц
Частота кадров : 31,250 кадров/сек (1536 spf)
Метод сжатия : С потерями
Размер потока : 317 Мбайт (2%)
Заголовок : MVO НеЗупиняйПродакшн
Язык : Ukrainian
Default : Нет
Forced : Нет

Аудио #6
Идентификатор : 7
Формат : Atmos / TrueHD
Идентификатор кодека : A_TRUEHD
Продолжительность : 1 ч. 55 м.
Вид битрейта : Переменный
Битрейт : 4062 Кбит/сек
Максимальный битрейт : 7278 Кбит/сек
Каналы : Object Based / 8 каналов
Расположение каналов : Object Based / Front: L C R, Side: L R, Back: L R, LFE
Частота : / 48,0 КГц
Частота кадров : 1200,000 кадров/сек (40 spf)
Метод сжатия : Без потерь
Размер потока : 3,26 Гбайт (24%)
Заголовок : Original
Язык : English
Default : Нет
Forced : Нет

Аудио #7
Идентификатор : 8
Формат : AC-3
Формат/Информация : Audio Coding 3
Расширение режима : CM (complete main)
Параметр Endianness формата : Big
Идентификатор кодека : A_AC3
Продолжительность : 1 ч. 55 м.
Вид битрейта : Постоянный
Битрейт : 640 Кбит/сек
Каналы : 6 каналов
Расположение каналов : Front: L C R, Side: L R, LFE
Частота : 48,0 КГц
Частота кадров : 31,250 кадров/сек (1536 spf)
Метод сжатия : С потерями
Размер потока : 526 Мбайт (4%)
Заголовок : Original, AC3 Core
Язык : English
Default : Нет
Forced : Нет

Текст #1
Идентификатор : 9
Формат : UTF-8
Идентификатор кодека : S_TEXT/UTF8
Идентификатор кодека/Информация : UTF-8 Plain Text
Продолжительность : 1 ч. 46 м.
Битрейт : 59 бит/сек
Count of elements : 915
Размер потока : 46,7 Кбайт (0%)
Заголовок : Full Focs
Язык : Russian
Default : Нет
Forced : Нет

Текст #2
Идентификатор : 10
Формат : UTF-8
Идентификатор кодека : S_TEXT/UTF8
Идентификатор кодека/Информация : UTF-8 Plain Text
Продолжительность : 1 ч. 46 м.
Битрейт : 55 бит/сек
Count of elements : 920
Размер потока : 43,3 Кбайт (0%)
Заголовок : Full v.2
Язык : Russian
Default : Нет
Forced : Нет

Текст #3
Идентификатор : 11
Формат : UTF-8
Идентификатор кодека : S_TEXT/UTF8
Идентификатор кодека/Информация : UTF-8 Plain Text
Продолжительность : 1 ч. 47 м.
Битрейт : 56 бит/сек
Count of elements : 926
Размер потока : 44,2 Кбайт (0%)
Заголовок : Full by ivadm
Язык : Ukrainian
Default : Нет
Forced : Нет

Текст #4
Идентификатор : 12
Формат : UTF-8
Идентификатор кодека : S_TEXT/UTF8
Идентификатор кодека/Информация : UTF-8 Plain Text
Продолжительность : 1 ч. 46 м.
Битрейт : 34 бит/сек
Count of elements : 940
Размер потока : 27,1 Кбайт (0%)
Заголовок : Full
Язык : English
Default : Нет
Forced : Нет

Текст #5
Идентификатор : 13
Формат : UTF-8
Идентификатор кодека : S_TEXT/UTF8
Идентификатор кодека/Информация : UTF-8 Plain Text
Продолжительность : 1 ч. 47 м.
Битрейт : 40 бит/сек
Count of elements : 1098
Размер потока : 32,2 Кбайт (0%)
Заголовок : SDH
Язык : English
Default : Нет
Forced : Нет

Меню
00:00:00.000 : en:00:00:00.000
00:05:09.309 : en:00:05:09.309
00:11:39.157 : en:00:11:39.157
00:17:06.692 : en:00:17:06.692
00:24:08.656 : en:00:24:08.656
00:28:59.446 : en:00:28:59.446
00:37:24.242 : en:00:37:24.242
00:41:59.517 : en:00:41:59.517
00:49:11.448 : en:00:49:11.448
00:56:06.405 : en:00:56:06.405
01:03:22.298 : en:01:03:22.298
01:10:25.012 : en:01:10:25.012
01:17:21.929 : en:01:17:21.929
01:22:20.477 : en:01:22:20.477
01:30:26.296 : en:01:30:26.296
01:38:48.589 : en:01:38:48.589
01:43:58.357 : en:01:43:58.357
01:48:14.279 : en:01:48:14.279
pb.wtf



Скачать Аннигиляция через торрент https://a.radikal.ru/a30/1805/2e/500bd62ae6b1.jpg Скачать, смотреть онлайн Аннигиляция бесплантно в хорошем качестве Описание: Профессор биологии Лина уже год страдает от потери мужа-военного. Кейн отправился на очередное секретное задание, но так и не ... 10 10 3
Торрент: Зарегистрирован [2018-05-31 05:49] · скачан: 173 раз
Статус: √ проверено
Размер: 13.74 GB
Как cкачать? Как скачать Аннигиляция через торрент | UTorrent

% Раздел Тема Автор DL S | L
Фильмы 2019-2020 [DVDrip, WEB-DLRip, HDrip] (DUB, MVO) [ 1.89 GB ] Дум: Аннигиляция / Doom: Annihilation [2019 BDRip-AVC] DUB - ExKinoRay Enigma2010 Скачать
1 | 0
Ultra HD (UHD: 2K, 4K, 8K) — видео сверхвысокой чёткости [ 46.73 GB ] Аннигиляция / Annihilation [2018 UHD BDRemux 2160p] [Dolby Vision TV] DUB + 2xMVO + 2xAVO sheker187 Скачать
1 | 0
Ultra HD (UHD: 2K, 4K, 8K) — видео сверхвысокой чёткости [ 63.86 GB ] Аннигиляция / Annihilation [2018 UHD BDRemux 2160p] [Dolby Vision] DUB + 2xMVO + 2xAVO sheker187 Скачать
1 | 0
# Фильмы (мультфильмы) cо спонсором показа (Новинки AVI/MKV) [ 4.9 GB ] Дум: Аннигиляция / Doom: Annihilation [2019 BDRip 720p] MVO [@[email protected]] bober100 Скачать
1 | 0
T Фильмы (мультфильмы) cо спонсором показа (Новинки AVI/MKV) [ 1.37 GB ] Дум: Аннигиляция / Doom: Annihilation [2019 HDRip] MVO [@[email protected]] bober100 Скачать
1 | 0
# Фильмы (мультфильмы) cо спонсором показа (Новинки AVI/MKV) [ 9.14 GB ] Дум: Аннигиляция / Doom: Annihilation [2019 BDRip 1080p] MVO [@[email protected]] bober100 Скачать
1 | 0
Фильмы 2018 [DVDrip, WEB-DLRip, HDrip] (DUB, MVO) [ 2.13 GB ] Аннигиляция / Annihilation [2018 BDRip] - Twi7ter Скачать
1 | 1

28-11-2019 20:33  

Отключить вcю реклaмy на сайте

    Дорогой пользователь! Огромная просьба, поблагодарите релизера, оцените раздачу и оставьте свои комментарий, если Вы скачали Аннигиляция через торрент бесплатно!
    Комментировать посты могут только пользователи прошедшие не сложную регистрацию
    Показать сообщения:    

    Аннигиляция через торрент
    Скачать бесплатно Аннигиляция
    Аннигиляция скачать торрент
    Аннигиляция смотреть онлайн
    Cкачать фильм Аннигиляция бесплатно
    Аннигиляция скачать торрент в хорошем качестве
    Аннигиляция смотреть онлайн бесплатно в хорошем качестве


    Вы не можете начинать темы
    Вы не можете отвечать на сообщения
    Вы не можете редактировать свои сообщения
    Вы не можете удалять свои сообщения
    Вы не можете голосовать в опросах
    Вы не можете прикреплять файлы к сообщениям
    Вы можете скачивать файлы