2 сезон

iTunes

MVO

1

2 сезон

iTunes

1 сезон

1 сезон

RePack

30

Новинка

ВАЖНО

ИГРА 18+

pack

RePack

MK11
pack

Легкие деньги

RePack

jed

RePack

fifa19

RePack

RDR2

RePack

NEED FOR SPEED™ PAYBACK

4 сезон

9 сезон

Бесстыжие 9 сезон

Все сериалы

все сериалы на PB.wtf

RePack

FAR CRY 5

Anonymous, добрый день, мы не успеваем собрать деньги на оплату серверов за декабрь и январь, помогите нам пожалуйста в это трудное время. В качестве благодарности мы отключим Вам всю рекламу на сайте (укажите свой ник в строку Ваше имя)!

×
  
Magnet ссылка

Скиф (Рустам Мосафир) [2018, драма, история, фэнтези, боевик, приключения, BDRip 720p] [Лицензия] - ExKinoRay pb.wtf

Скиф через торрент pb.wtf

Размер: 4.76 GB | Добавлен: 2 года 7 мес. назад | Торрент скачан:453 раза
Скачать  

31-05-2018 11:09 Скиф Скачать торрент  

Информация о фильме
Название: Скиф
Год выхода: 2018
Жанр: Драма, история, фэнтези, боевик, приключения
Режиссер: Рустам Мосафир
В ролях: Алексей Фаддеев, Виталий Кравченко, Александр Кузнецов, Александр Пацевич, Юрий Цурило, Андрей Пермяков, Василиса Измайлова, Алексей Овсянников, Фёдор Рощин, Рустам Мосафир

Описание:
Действие фильма происходит во время смены цивилизаций. В Евразии начинается новая эра. Ушли в небытие гордые воины — скифы, их вымирающие потомки превратились в безжалостных наемных убийц, «волков Ареса». Ратнику Лютобору предстоит тяжелое испытание. Втянутый в междоусобные интриги он отправляется в опасный путь ради спасения семьи, а его проводником становится пленный скиф Куница. Они — враги и молятся разным богам, но вынуждены идти вместе. Через дикий степной мир к пристанищу последних скифов, где их ждет почти неминуемая смерть…

rating

Страна: Россия
Студия: Кинокомпания СТВ
Продолжительность: 01:44:32
Язык: Русский | Лицензия BD GER
Субтитры: Немецкие

Формат: MKV
Качество: BDRip 720p
Видео: MPEG-4 AVC, 1280x536 (2.40:1), 24.000 fps, 5245 Kbps, 0.319 bit/pixel
Аудио: 48 kHz, AC3, 5.1 ch, ~640 kbps avg - Rus
Аудио: 48 kHz, AC3, 5.1 ch, ~640 kbps avg - Ger
General
Unique ID : 199504822137668890077667634531263107558 (0x96173B29664FC9E5A31C2BF4B90CD1E6)
Complete name : D:\Skif.2017.BDRip.720p.ExKinoRay.mkv
Format : Matroska
Format version : Version 2
File size : 4.76 GiB
Duration : 1 h 44 min
Overall bit rate : 6 517 kb/s
Movie name : Skif (2017) from ExKinoRay
Encoded date : UTC 2018-05-31 10:10:26
Writing application : mkvmerge v5.6.0 ('Kenya Kane') built on May 27 2012 16:44:04
Writing library : libebml v1.2.3 libmatroska v1.3.0

Video
ID : 1
Format : AVC
Format/Info : Advanced Video Codec
Format profile : High@L4.1
Format settings, CABAC : Yes
Format settings, ReFrames : 12 frames
Codec ID : V_MPEG4/ISO/AVC
Duration : 1 h 44 min
Bit rate : 5 245 kb/s
Width : 1 280 pixels
Height : 536 pixels
Display aspect ratio : 2.40:1
Frame rate mode : Constant
Frame rate : 23.976 (24000/1001) FPS
Color space : YUV
Chroma subsampling : 4:2:0
Bit depth : 8 bits
Scan type : Progressive
Bits/(Pixel*Frame) : 0.319
Stream size : 3.73 GiB (78%)
Title : Enigma
Writing library : x264 core 152 r2851 ba24899
Encoding settings : cabac=1 / ref=12 / deblock=1:-2:-2 / analyse=0x3:0x113 / me=umh / subme=11 / psy=1 / psy_rd=1.05:0.10 / mixed_ref=1 / me_range=32 / chroma_me=1 / trellis=2 / 8x8dct=1 / cqm=0 / deadzone=21,11 / fast_pskip=0 / chroma_qp_offset=-3 / threads=12 / lookahead_threads=3 / sliced_threads=0 / nr=0 / decimate=0 / interlaced=0 / bluray_compat=0 / constrained_intra=0 / bframes=10 / b_pyramid=2 / b_adapt=2 / b_bias=0 / direct=3 / weightb=1 / open_gop=0 / weightp=2 / keyint=240 / keyint_min=23 / scenecut=40 / intra_refresh=0 / rc_lookahead=40 / rc=2pass / mbtree=0 / bitrate=5245 / ratetol=1.0 / qcomp=0.60 / qpmin=0 / qpmax=51 / qpstep=4 / cplxblur=20.0 / qblur=0.5 / vbv_maxrate=50000 / vbv_bufsize=62500 / nal_hrd=none / filler=0 / ip_ratio=1.40 / pb_ratio=1.30 / aq=2:0.90
Language : English
Default : Yes
Forced : No
Color range : Limited
Color primaries : BT.709
Transfer characteristics : BT.709
Matrix coefficients : BT.709

Audio #1
ID : 2
Format : AC-3
Format/Info : Audio Coding 3
Mode extension : CM (complete main)
Format settings, Endianness : Big
Codec ID : A_AC3
Duration : 1 h 44 min
Bit rate mode : Constant
Bit rate : 640 kb/s
Channel(s) : 6 channels
Channel positions : Front: L C R, Side: L R, LFE
Sampling rate : 48.0 kHz
Frame rate : 31.250 FPS (1536 spf)
Compression mode : Lossy
Stream size : 479 MiB (10%)
Title : Blu-Ray
Language : Russian
Default : Yes
Forced : No

Audio #2
ID : 3
Format : AC-3
Format/Info : Audio Coding 3
Mode extension : CM (complete main)
Format settings, Endianness : Big
Codec ID : A_AC3
Duration : 1 h 44 min
Bit rate mode : Constant
Bit rate : 640 kb/s
Channel(s) : 6 channels
Channel positions : Front: L C R, Side: L R, LFE
Sampling rate : 48.0 kHz
Frame rate : 31.250 FPS (1536 spf)
Compression mode : Lossy
Stream size : 479 MiB (10%)
Language : German
Default : No
Forced : No

Text #1
ID : 4
Format : UTF-8
Codec ID : S_TEXT/UTF8
Codec ID/Info : UTF-8 Plain Text
Title : Forced
Language : German
Default : No
Forced : No

Text #2
ID : 5
Format : UTF-8
Codec ID : S_TEXT/UTF8
Codec ID/Info : UTF-8 Plain Text
Title : Full
Language : German
Default : No
Forced : No

Menu
00:00:00.000 : :Chapter 01
00:10:40.556 : :Chapter 02
00:18:16.386 : :Chapter 03
00:29:00.822 : :Chapter 04
00:37:23.491 : :Chapter 05
00:45:32.688 : :Chapter 06
00:53:55.690 : :Chapter 07
01:03:59.335 : :Chapter 08
01:11:56.645 : :Chapter 09
01:22:56.972 : :Chapter 10
01:31:06.127 : :Chapter 11
01:38:28.110 : :Chapter 12
01:44:32.140 : :Chapter 13
[url=http://hostpic.gq/img/2018-05/31/8mnvkp СПАМ
Релиз от:

Автор релиза: pb.wtf



Скачать Скиф через торрент http://lostpix.com/img/2018-05/31/zrv1vpwz5rml8g252c12ahl8k.jpg Скачать фильм Скиф через торрент бесплантно в хорошем качестве Описание:Действие фильма происходит во время смены цивилизаций. В Евразии начинается новая эра. Ушли в небытие гордые воины — скифы, их ... 9.3 10 10
Info! Золотая раздача, скачанное не засчитывается.
Торрент: Зарегистрирован [2018-05-31 11:09] · скачан: 453 раз
Статус: √ проверено
Размер: 4.76 GB
Как cкачать? Как скачать Скиф через торрент | UTorrent

28-11-2019 20:33  

Отключить всю рекламу на сайте


31-05-2018 16:13 Скиф Скачать торрент  

Весьма неплохой ( для РУКИНО !!!) получился фильмец. Но та же "Вальгалла: Сага о викинге" в разы сильнее, имхо.pb.wtf



31-05-2018 19:45 Скиф Скачать торрент  

Шикарный фильм! Рекомендую всем. Вот так надо снимать!!!pb.wtf



    Дорогой пользователь! Огромная просьба, поблагодарите релизера, оцените раздачу и оставьте свои комментарий, если Вы скачали Скиф через торрент бесплатно! Внесите свою лепту в развитие PiratBit!
    Комментировать посты могут только пользователи прошедшие не сложную регистрацию
    Показать сообщения:    

    Скиф через торрент
    Скачать бесплатно Скиф
    Скиф скачать торрент
    Скиф смотреть онлайн
    Cкачать фильм Скиф бесплатно
    Скиф скачать торрент в хорошем качестве
    Скиф смотреть онлайн бесплатно в хорошем качестве


    Вы не можете начинать темы
    Вы не можете отвечать на сообщения
    Вы не можете редактировать свои сообщения
    Вы не можете удалять свои сообщения
    Вы не можете голосовать в опросах
    Вы не можете прикреплять файлы к сообщениям
    Вы можете скачивать файлы