Ссылка на приватное зеркало нашего сайта всего за 1$. Внимание количество ограничено!!!

2 сезон

iTunes

1 сезон

1

iTunes

iTunes

iTunes

1 сезон

RePack

30

ИГРА 18+

pack

ВАЖНО

!!Акция!!

Alien_RageХит недели

RePack

MK11
pack

Забери бонус

RePack

jed

!!Акция!!

Alien_Rage

RePack

fifa19

RePack

Assassins Creed: Odyssey

RePack

NEED FOR SPEED™ PAYBACK

4 сезон

9 сезон

Бесстыжие 9 сезон

Все сериалы

все сериалы на PB.wtf

RePack

FAR CRY 5
  

Восток-Запад / Восточные сладости / Сезон: 2 / Серии: 1-24 из 24 (Денис Елеонский) [2018, Мелодрама, WEB-DL 720p] pb.wtf

Восток-Запад через торрент pb.wtf

Размер: 30.09 GB | Добавлен: 2 года 4 мес. назад | Торрент скачан:33 раза
Скачать  

31-05-2018 11:42 Восток-Запад Скачать торрент  

Восток-Запад / Восточные сладости
Год выпуска: 2018
Страна: Россия, Турция, Украина
Жанр: Мелодрама
Продолжительность: ~ 00:48:00
Субтитры: отсутствуют

Режиссер: Денис Елеонский



В ролях:

Евгения Лоза, Аднан Коч, Яков Кучеревский, Шенай Ба, Анна Варпаховская, Ольга Лукьяненко, Уйур Хакан Гюнери, Энгиз Озсайын, Алие Узунатаган, Дарья Южад, Наталья Кленина, Богдан Юсипчук, Полина Василина, Тимур Ибраимов, Алексан Четинкая, Ахтем Сейтаблаев, Хусейин Дилбер, Эркам Айдар, Мария Тарасова (II), Роман Выскребенцев

Описание:

Найдет ли Татьяна счастье в Турции или вернется на Родину? Кто отец её ребенка? Что делать со своей жизнью, когда она стремительно рушится?..

Качество: WEB-DL 720p
Формат: MKV

Видео: MPEG-4 AVC, ~ 3500 Кбит/с, 1280x720
Аудио: AC3, 2 ch, 192 Кбит/с
скриншот   скриншот   скриншот   скриншот   скриншот  

Общее
Уникальный идентификатор : 255770212657646604908610265717969784919 (0xC06B8D17C55A45692204A47390601057)
Полное имя : F:\Восток-Запад (Восточные сладости).s02.2018.WEB-DL (720p).by.Nicodem.Files-x\01.Восток-Запад (Восточные сладости).s02.2018.WEB-DL (720p).by.Nicodem.Files-x.mkv
Формат : Matroska
Версия формата : Version 4 / Version 2
Размер файла : 1,34 Гбайт
Продолжительность : 52 м. 2 с.
Общий поток : 3680 Кбит/сек
Программа кодирования : Lavf56.36.100
Библиотека кодирования : Lavf56.36.100 / Lavf56.36.100

Видео
Идентификатор : 1
Формат : AVC
Формат/Информация : Advanced Video Codec
Профиль формата : High@L4.1
Параметр CABAC формата : Да
Параметр RefFrames формата : 5 кадров
Идентификатор кодека : V_MPEG4/ISO/AVC
Продолжительность : 52 м. 2 с.
Битрейт : 3500 Кбит/сек
Ширина : 1280 пикселей
Высота : 720 пикселей
Соотношение сторон : 16:9
Режим частоты кадров : Постоянный
Частота кадров : 25,000 кадров/сек
Цветовое пространство : YUV
Субдискретизация насыщенности : 4:2:0
Битовая глубина : 8 бит
Тип развёртки : Прогрессивная
Бит/(Пиксели*Кадры) : 0.152
Размер потока : 1,24 Гбайт (93%)
Библиотека кодирования : x264 core 148
Настройки программы : cabac=1 / ref=5 / deblock=1:0:0 / analyse=0x3:0x113 / me=hex / subme=8 / psy=1 / psy_rd=1.00:0.00 / mixed_ref=1 / me_range=16 / chroma_me=1 / trellis=2 / 8x8dct=1 / cqm=0 / deadzone=21,11 / fast_pskip=1 / chroma_qp_offset=-2 / threads=1 / lookahead_threads=1 / sliced_threads=0 / nr=0 / decimate=1 / interlaced=0 / bluray_compat=0 / constrained_intra=0 / bframes=3 / b_pyramid=2 / b_adapt=1 / b_bias=0 / direct=3 / weightb=1 / open_gop=0 / weightp=2 / keyint=250 / keyint_min=25 / scenecut=0 / intra_refresh=0 / rc_lookahead=50 / rc=abr / mbtree=1 / bitrate=3500 / ratetol=1.0 / qcomp=0.60 / qpmin=0 / qpmax=69 / qpstep=4 / ip_ratio=1.40 / aq=1:1.00
Default : Да
Forced : Нет

Аудио
Идентификатор : 2
Формат : AC-3
Формат/Информация : Audio Coding 3
Расширение режима : CM (complete main)
Параметр Endianness формата : Big
Идентификатор кодека : A_AC3
Продолжительность : 52 м. 2 с.
Вид битрейта : Постоянный
Битрейт : 192 Кбит/сек
Каналы : 2 канала
Расположение каналов : Front: L R
Частота : 44,1 КГц
Частота кадров : 28,711 кадров/сек (1536 spf)
Метод сжатия : С потерями
Задержка видео : -80 мс.
Размер потока : 71,5 Мбайт (5%)
Язык : unknown
Default : Да
Forced : Нет

pb.wtf



Скачать Восток-Запад через торрент http://i104.fastpic.ru/big/2018/0515/c8/0dfbdee34ee2059f64bb9bb4a7295cc8.jpg Скачать фильм Восток-Запад через торрент бесплантно в хорошем качестве Описание: Найдет ли Татьяна счастье в Турции или вернется на Родину? Кто отец её ребенка? Что делать со своей жизнью, когда она ... 10 10 2
Info! Золотая раздача, скачанное не засчитывается.
Торрент: Зарегистрирован [2018-05-31 11:42] · скачан: 33 раз
Статус: √ проверено
Размер: 30.09 GB
Как cкачать? Как скачать Восток-Запад через торрент | qTorrent

% Раздел Тема Автор DL S | L
Наши сериалы [ 14.14 GB ] Восток-Запад / Восточные сладости / Сезон: 2 / Серии: 1-24 из 24 [2018 Мело WEB-DLRip] bober100 Скачать
1 | 0
Наши сериалы [ 14.64 GB ] Восток-Запад / Восточные сладости / Сезон: 2 / Серии: 1-24 из 24 [2018 Мело WEB-DLRip-AVC] bober100 Скачать
1 | 0
Наши сериалы [ 15.79 GB ] Восток-Запад / Восточные сладости / Сезон: 2 / Серии: 1-24 из 24 [2018 Мело SATRip] bober100 Скачать
1 | 0

28-11-2019 20:33  

Отключить всю рекламу на сайте

    Дорогой пользователь! Огромная просьба, поблагодарите релизера, оцените раздачу и оставьте свои комментарий, если Вы скачали Восток-Запад через торрент бесплатно! Внесите свою лепту в развитие PiratBit!
    Комментировать посты могут только пользователи прошедшие не сложную регистрацию
    Показать сообщения:    

    Восток-Запад через торрент
    Скачать бесплатно Восток-Запад
    Восток-Запад скачать торрент
    Восток-Запад смотреть онлайн
    Cкачать фильм Восток-Запад бесплатно
    Восток-Запад скачать торрент в хорошем качестве
    Восток-Запад смотреть онлайн бесплатно в хорошем качестве


    Вы не можете начинать темы
    Вы не можете отвечать на сообщения
    Вы не можете редактировать свои сообщения
    Вы не можете удалять свои сообщения
    Вы не можете голосовать в опросах
    Вы не можете прикреплять файлы к сообщениям
    Вы можете скачивать файлы