Ссылка на приватное зеркало всего за 1$. Внимание количество ограничено!!!

OK

1+1

iTunes

мы

OK

1

WEB-DLRip

Джокер

Пифагор

Ведьмак / The Witcher сериал

iTunes

ПШазам

ОК

Оно 2

iTunes

30
pack

Вам бонус

ВАЖНО

!!Акция!!

Alien_RageХит недели

RePack

Resident Evil 21

ИГРА 18+

pack

RePack

jed

RePack

fifa19

RePack

Assassins Creed: Odyssey

RePack

NEED FOR SPEED™ PAYBACK

4 сезон

9 сезон

Бесстыжие 9 сезон

Все сериалы

все сериалы на PB.wtf

RePack

FAR CRY 5
  

Человек с белым лицом / The Pale Man (Джон Лерхен) [2017, Триллер, детектив, WEB-DL 720p] MVO ["Синема УС"] pb.wtf

Человек с белым лицом через торрент pb.wtf

Размер: 3.39 GB | Добавлен: 1 год 7 мес. назад | Торрент скачан:18 раз
Скачать  

31-05-2018 15:05 Человек с белым лицом Скачать торрент  

Человек с белым лицом / The Pale ManГод выпуска: 2017
Страна: США
Жанр: Триллер, детектив
Продолжительность: 01:39:57
Перевод: Любительский (многоголосый) | "Синема УС"
Субтитры: отсутствуют

Режиссер: Джон Лерхен

rating

В ролях:

Брюс Спилбауэр, Сюзанн Петри, Тейлор Боствик, Томас Эдсон МакЭлрой, Рут Кауфман, Зои Леггетт, Скотт Майерс, Бенджамин Медоуз, Остин Тернер, Морис МакНиколас

Описание:

Из-за поломки машины, молодой преподаватель литературы с психологическими проблемам случайно оказывается в маленьком городке и втягивается в поиски женщины, таинственным образом пропавшей много лет назад.

Качество: WEB-DL 720p
Формат: MKV

Видео: h.264, 4 471 kb/s, 1280x544
Аудио#1: Русский, (AC3, 2 ch, 384 Кбит/с)
скриншот  скриншот  скриншот  

Общее
Уникальный идентификатор : 187599677066036014450760037574747949812 (0x8D2262311C99D91A954D1D73D9550AF4)
Полное имя : F:\The.Pale.Man.2017.P.WEB-DL.72Op_KOSHARA.mkv
Формат : Matroska
Версия формата : Version 2
Размер файла : 3,39 Гбайт
Продолжительность : 1 ч. 39 м.
Режим общего битрейта : Переменный
Общий поток : 4857 Кбит/сек
Дата кодирования : UTC 2018-05-29 02:11:05
Программа кодирования : mkvmerge v8.3.0 ('Over the Horizon') 64bit
Библиотека кодирования : libebml v1.3.1 + libmatroska v1.4.2

Видео
Идентификатор : 1
Формат : AVC
Формат/Информация : Advanced Video Codec
Профиль формата : High@L4.1
Параметр CABAC формата : Да
Параметр RefFrames формата : 4 кадра
Идентификатор кодека : V_MPEG4/ISO/AVC
Продолжительность : 1 ч. 39 м.
Вид битрейта : Переменный
Битрейт : 4471 Кбит/сек
Максимальный битрейт : 5000 Кбит/сек
Ширина : 1280 пикселей
Высота : 544 пикселя
Соотношение сторон : 2,35:1
Режим частоты кадров : Постоянный
Частота кадров : 23,976 (24000/1001) кадра/сек
Стандарт вещания : Component
Цветовое пространство : YUV
Субдискретизация насыщенности : 4:2:0
Битовая глубина : 8 бит
Тип развёртки : Прогрессивная
Бит/(Пиксели*Кадры) : 0.262
Размер потока : 3,06 Гбайт (90%)
Default : Да
Forced : Нет
Цветовой диапазон : Limited
Основные цвета : BT.709
Характеристики трансфера : BT.709
Коэффициенты матрицы : BT.709

Аудио
Идентификатор : 2
Формат : AC-3
Формат/Информация : Audio Coding 3
Расширение режима : CM (complete main)
Параметр Endianness формата : Big
Идентификатор кодека : A_AC3
Продолжительность : 1 ч. 39 м.
Вид битрейта : Постоянный
Битрейт : 384 Кбит/сек
Каналы : 2 канала
Расположение каналов : Front: L R
Частота : 48,0 КГц
Частота кадров : 31,250 кадров/сек (1536 spf)
Метод сжатия : С потерями
Размер потока : 275 Мбайт (8%)
Default : Да
Forced : Нет

pb.wtf



Скачать Человек с белым лицом через торрент http://img12.lostpic.net/2018/05/31/c3549c642e2d9b5039d68ce2a60a9ec7.jpg Скачать фильм Человек с белым лицом через торрент бесплантно в хорошем качестве Описание: Из-за поломки машины, молодой преподаватель литературы с психологическими проблемам случайно оказывается в маленьком городке и ... 5.8 10 4
Торрент: Зарегистрирован [2018-05-31 15:05] · скачан: 18 раз
Статус: T временная
Размер: 3.39 GB
Как cкачать? Как скачать Человек с белым лицом через торрент | qTorrent

% Раздел Тема Автор DL S | L
T Фильмы (мультфильмы) cо спонсором показа (Новинки AVI/MKV) [ 1.37 GB ] Человек с белым лицом / The Pale Man [2017 WEB-DLRip] MVO ["Синема УС"] bober100 Скачать
1 | 0

28-11-2019 20:33  

Отключить всю рекламу на сайте

25-06-2018 15:51 Человек с белым лицом Скачать торрент  

Ерунда какая-то!pb.wtf



    Дорогой пользователь! Огромная просьба, поблагодарите релизера, оцените раздачу и оставьте свои комментарий, если Вы скачали Человек с белым лицом через торрент бесплатно! Внесите свою лепту в развитие PiratBit!
    Комментировать посты могут только пользователи прошедшие не сложную регистрацию
    Показать сообщения:    

    Человек с белым лицом через торрент
    Скачать бесплатно Человек с белым лицом
    Человек с белым лицом скачать торрент
    Человек с белым лицом смотреть онлайн
    Cкачать фильм Человек с белым лицом бесплатно
    Человек с белым лицом скачать торрент в хорошем качестве
    Человек с белым лицом смотреть онлайн бесплатно в хорошем качестве


    Вы не можете начинать темы
    Вы не можете отвечать на сообщения
    Вы не можете редактировать свои сообщения
    Вы не можете удалять свои сообщения
    Вы не можете голосовать в опросах
    Вы не можете прикреплять файлы к сообщениям
    Вы можете скачивать файлы