Ссылка на приватное зеркало нашего сайта всего за 1$. Внимание количество ограничено!!!

2 сезон

iTunes

iTunes

1

iTunes

iTunes

iTunes

WEBRip

iTunes

30
pack

Вам бонус

ВАЖНО

!!Акция!!

Alien_RageХит недели

RePack

Horizon Zero Dawn

ИГРА 18+

pack

RePack

jed

!!Акция!!

Alien_Rage

RePack

fifa19

RePack

Assassins Creed: Odyssey

RePack

NEED FOR SPEED™ PAYBACK

4 сезон

9 сезон

Бесстыжие 9 сезон

Все сериалы

все сериалы на PB.wtf

RePack

FAR CRY 5
  

Королевский финал / Royally Ever After (Ли Фридландер) [2018, комедия, WEBRip 720p] MVO ["Синема УС"] pb.wtf

Королевский финал через торрент pb.wtf

Раздают: 1 [ 0 KB/s ]
Размер: 2.94 GB | Добавлен: 2 года 3 мес. назад | Торрент скачан:66 раз
Скачать  

31-05-2018 17:15 Королевский финал Скачать торрент  

Королевский финал / Royally Ever AfterГод выпуска: 2018
Страна: США
Жанр: комедия
Продолжительность: 01:25:58
Перевод: Любительский (многоголосый) | "Синема УС"
Субтитры: отсутствуют

Режиссер: Ли Фридландер

rating

В ролях:

Фиона Губельманн, Торранс Кумбс, Кармен Ду Сатой

Описание:

Сара работает учительницей и живет обычной жизнью, но вдруг она узнает, что её парень Дэниел - принц маленького государства Сент-Айвс. Чтобы пожениться, им необходимо получить благословление его родителей, Короля и Королевы Сент-Айвса, но оказывается, что простолюдинке не так просто вписаться в королевскую жизнь.

Качество: WEBRip 720p
Формат: MKV

Видео: h.264, 4 518 kb/s, 1280x720
Аудио#1: Русский, (AC3, 2 ch, 384 Кбит/с)
скриншот  скриншот  скриншот  

Общее
Уникальный идентификатор : 227699951388273029477237233479237121580 (0xAB4D6A5C55BE4F0F86C4452AD936362C)
Полное имя : F:\Royally.ever.after.2018.P.HDTV.72Op_KOSHARA.mkv
Формат : Matroska
Версия формата : Version 2
Размер файла : 2,94 Гбайт
Продолжительность : 1 ч. 25 м.
Режим общего битрейта : Переменный
Общий поток : 4904 Кбит/сек
Дата кодирования : UTC 2018-05-29 02:22:38
Программа кодирования : mkvmerge v8.3.0 ('Over the Horizon') 64bit
Библиотека кодирования : libebml v1.3.1 + libmatroska v1.4.2

Видео
Идентификатор : 1
Формат : AVC
Формат/Информация : Advanced Video Codec
Профиль формата : High@L4.1
Параметр CABAC формата : Да
Параметр RefFrames формата : 4 кадра
Идентификатор кодека : V_MPEG4/ISO/AVC
Продолжительность : 1 ч. 25 м.
Вид битрейта : Переменный
Битрейт : 4518 Кбит/сек
Максимальный битрейт : 5000 Кбит/сек
Ширина : 1280 пикселей
Высота : 720 пикселей
Соотношение сторон : 16:9
Режим частоты кадров : Постоянный
Частота кадров : 23,976 (24000/1001) кадра/сек
Стандарт вещания : Component
Цветовое пространство : YUV
Субдискретизация насыщенности : 4:2:0
Битовая глубина : 8 бит
Тип развёртки : Прогрессивная
Бит/(Пиксели*Кадры) : 0.200
Размер потока : 2,66 Гбайт (90%)
Default : Да
Forced : Нет
Цветовой диапазон : Limited
Основные цвета : BT.709
Характеристики трансфера : BT.709
Коэффициенты матрицы : BT.709

Аудио
Идентификатор : 2
Формат : AC-3
Формат/Информация : Audio Coding 3
Расширение режима : CM (complete main)
Параметр Endianness формата : Big
Идентификатор кодека : A_AC3
Продолжительность : 1 ч. 25 м.
Вид битрейта : Постоянный
Битрейт : 384 Кбит/сек
Каналы : 2 канала
Расположение каналов : Front: L R
Частота : 48,0 КГц
Частота кадров : 31,250 кадров/сек (1536 spf)
Метод сжатия : С потерями
Размер потока : 236 Мбайт (8%)
Default : Да
Forced : Нет

pb.wtf



Скачать Королевский финал через торрент http://pic1.kartinco.top/images/11/ly7ne.jpg Скачать фильм Королевский финал через торрент бесплантно в хорошем качестве Описание: Сара работает учительницей и живет обычной жизнью, но вдруг она узнает, что её парень Дэниел - принц маленького государства ... 5.5 10 4
Торрент: Зарегистрирован [2018-05-31 17:15] · скачан: 66 раз
Статус: T временная
Размер: 2.94 GB
Как cкачать? Как скачать Королевский финал через торрент | qTorrent

% Раздел Тема Автор DL S | L
T Фильмы (мультфильмы) cо спонсором показа (Новинки AVI/MKV) [ 1.37 GB ] Королевский финал / Royally Ever After [2018 WEBRip] MVO ["Синема УС"] bober100 Скачать
1 | 0

28-11-2019 20:33  

Отключить всю рекламу на сайте

31-05-2018 18:08 Королевский финал Скачать торрент  

кино ТВ-3pb.wtf



31-05-2018 18:18 Королевский финал Скачать торрент  

А я думал Акинфеев снялся....pb.wtf



    Дорогой пользователь! Огромная просьба, поблагодарите релизера, оцените раздачу и оставьте свои комментарий, если Вы скачали Королевский финал через торрент бесплатно! Внесите свою лепту в развитие PiratBit!
    Комментировать посты могут только пользователи прошедшие не сложную регистрацию
    Показать сообщения:    

    Королевский финал через торрент
    Скачать бесплатно Королевский финал
    Королевский финал скачать торрент
    Королевский финал смотреть онлайн
    Cкачать фильм Королевский финал бесплатно
    Королевский финал скачать торрент в хорошем качестве
    Королевский финал смотреть онлайн бесплатно в хорошем качестве


    Вы не можете начинать темы
    Вы не можете отвечать на сообщения
    Вы не можете редактировать свои сообщения
    Вы не можете удалять свои сообщения
    Вы не можете голосовать в опросах
    Вы не можете прикреплять файлы к сообщениям
    Вы можете скачивать файлы