Ссылка на приватное зеркало нашего сайта всего за 1$. Внимание количество ограничено!!!

2 сезон

iTunes

iTunes

1

iTunes

iTunes

iTunes

WEBRip

iTunes

30
pack

Новость дня

ВАЖНО

!!Акция!!

Alien_RageХит недели

RePack

Horizon Zero Dawn

ИГРА 18+

pack

RePack

jed

!!Акция!!

Alien_Rage

RePack

fifa19

RePack

Assassins Creed: Odyssey

RePack

NEED FOR SPEED™ PAYBACK

4 сезон

9 сезон

Бесстыжие 9 сезон

Все сериалы

все сериалы на PB.wtf

RePack

FAR CRY 5
  

Я убила маму? / Did I Kill My Mother? (Дэвид Буш) [2018, Фэнтези, WEBRip 720p] MVO ["Синема УС"] pb.wtf

Я убила маму? через торрент pb.wtf

Размер: 2.88 GB | Добавлен: 2 года 3 мес. назад | Торрент скачан:23 раза
Скачать  

31-05-2018 17:39 Я убила маму? Скачать торрент  

Я убила маму? / Did I Kill My Mother?Год выпуска: 2018
Страна: США
Жанр: Фэнтези
Продолжительность: 01:25:11
Перевод: Любительский (многоголосый) | "Синема УС"
Субтитры: отсутствуют

Режиссер: Дэвид Буш

rating

В ролях:

Меган Парк, Остин Хайсмит, Дейн Родос

Описание:

Мать девушки находят мертвой спустя год после убийства ее отца, которое так и не было раскрыто. Полиция считает, что, возможно, это дочь совершила преступление, поэтому ей и ее друзьям приходится доказывать ее невиновность.

Качество: WEBRip 720p
Формат: MKV

Видео: h.264, 4 455 kb/s, 1280x720
Аудио#1: AC3, 2 ch, 384 Кбит/с
скриншот  скриншот  скриншот  

Общее
Уникальный идентификатор : 220340117194202064505689849703185209504 (0xA5C3F684E6B1F82192AFE943610758A0)
Полное имя : F:\Did.I.Kill.My.Mother.2018.P.HDTV.720p_KOSHARA.mkv
Формат : Matroska
Версия формата : Version 2
Размер файла : 2,88 Гбайт
Продолжительность : 1 ч. 25 м.
Режим общего битрейта : Переменный
Общий поток : 4841 Кбит/сек
Дата кодирования : UTC 2018-05-24 04:50:16
Программа кодирования : mkvmerge v8.3.0 ('Over the Horizon') 64bit
Библиотека кодирования : libebml v1.3.1 + libmatroska v1.4.2

Видео
Идентификатор : 1
Формат : AVC
Формат/Информация : Advanced Video Codec
Профиль формата : High@L4.1
Параметр CABAC формата : Да
Параметр RefFrames формата : 4 кадра
Идентификатор кодека : V_MPEG4/ISO/AVC
Продолжительность : 1 ч. 25 м.
Вид битрейта : Переменный
Битрейт : 4455 Кбит/сек
Максимальный битрейт : 5000 Кбит/сек
Ширина : 1280 пикселей
Высота : 720 пикселей
Соотношение сторон : 16:9
Режим частоты кадров : Постоянный
Частота кадров : 23,976 (24000/1001) кадра/сек
Стандарт вещания : Component
Цветовое пространство : YUV
Субдискретизация насыщенности : 4:2:0
Битовая глубина : 8 бит
Тип развёртки : Прогрессивная
Бит/(Пиксели*Кадры) : 0.197
Размер потока : 2,60 Гбайт (90%)
Default : Да
Forced : Нет
Цветовой диапазон : Limited
Основные цвета : BT.709
Характеристики трансфера : BT.709
Коэффициенты матрицы : BT.709

Аудио
Идентификатор : 2
Формат : AC-3
Формат/Информация : Audio Coding 3
Расширение режима : CM (complete main)
Параметр Endianness формата : Big
Идентификатор кодека : A_AC3
Продолжительность : 1 ч. 25 м.
Вид битрейта : Постоянный
Битрейт : 384 Кбит/сек
Каналы : 2 канала
Расположение каналов : Front: L R
Частота : 48,0 КГц
Частота кадров : 31,250 кадров/сек (1536 spf)
Метод сжатия : С потерями
Размер потока : 234 Мбайт (8%)
Default : Да
Forced : Нет

pb.wtf



Скачать Я убила маму? через торрент http://img12.lostpic.net/2018/05/31/3baf91e3cf58e6f020c5f7cea2308d43.jpg Скачать фильм Я убила маму? через торрент бесплантно в хорошем качестве Описание: Мать девушки находят мертвой спустя год после убийства ее отца, которое так и не было раскрыто. Полиция считает, что, возможно, ... 7 10 3
Торрент: Зарегистрирован [2018-05-31 17:39] · скачан: 23 раз
Статус: T временная
Размер: 2.88 GB
Как cкачать? Как скачать Я убила маму? через торрент | qTorrent

28-11-2019 20:33  

Отключить всю рекламу на сайте

    Дорогой пользователь! Огромная просьба, поблагодарите релизера, оцените раздачу и оставьте свои комментарий, если Вы скачали Я убила маму? через торрент бесплатно! Внесите свою лепту в развитие PiratBit!
    Комментировать посты могут только пользователи прошедшие не сложную регистрацию
    Показать сообщения:    

    Я убила маму? через торрент
    Скачать бесплатно Я убила маму?
    Я убила маму? скачать торрент
    Я убила маму? смотреть онлайн
    Cкачать фильм Я убила маму? бесплатно
    Я убила маму? скачать торрент в хорошем качестве
    Я убила маму? смотреть онлайн бесплатно в хорошем качестве


    Вы не можете начинать темы
    Вы не можете отвечать на сообщения
    Вы не можете редактировать свои сообщения
    Вы не можете удалять свои сообщения
    Вы не можете голосовать в опросах
    Вы не можете прикреплять файлы к сообщениям
    Вы можете скачивать файлы