новый адрес
Ссылка на приватное зеркало всего за 1$. Внимание количество ограничено!!!

iTunes

1+1

iTunes

мы

WEB-DL

1

iTunes

Чернобыль

iTunes

Ральф против интернета

Лицензия

ПШазам

Лицензия

Оно 2

Лицензия

30
pack

Вам бонус

ВАЖНО

!!Акция!!

Alien_RageХит недели

RePack

Resident Evil 21

ИГРА 18+

pack

RePack

jed

!!Акция!!

Alien_Rage

RePack

fifa19

RePack

Assassins Creed: Odyssey

RePack

NEED FOR SPEED™ PAYBACK

3 сезон

9 сезон

Бесстыжие 9 сезон

Все сериалы

все сериалы на PB.wtf

RePack

FAR CRY 5
Ребята, катастрофически не хватает 1900р. для оплаты серверов за Октябрь (всвязи с блокировками трафик упал в 3 раза), 1-2р., выручайте.
  

Одни из последних / Last Ones Out (Говард Фиви / Howard Fyvie) [2016, триллер, драма, приключения, WEBRip] VO [datynet] pb.wtf

Одни из последних через торрент pb.wtf

Размер: 1.09 GB | Добавлен: 1 год 6 мес. назад | Торрент скачан:72 раза
Скачать  

31-05-2018 19:23 Одни из последних Скачать торрент  

Одни из последних / Last Ones Out

Год выпуска: 2016
Страна: ЮАР
Жанр: триллер, драма, приключения

Продолжительность: 01:16:09
Перевод: Любительский одноголосый [datynet]
Примечание: Релиз без рекламы
Режиссер: Говард Фиви / Howard Fyvie
В ролях:

Кристина Виссер (Sunet), Грег Крик (Henry), Такс Тэд Лунгу (Prisoner Sandama), Tshamano Sebe (Siseko)
Описание:
Американец оказывается в Африке во время зомби-апокалипсиса, и теперь ему придётся доверится помощи трех таинственных незнакомцев, чтобы остаться в живых.
Рейтинг:
rating
Качество: WEBRip
Формат: AVI
Видео: XviD, 720x304 (2.35:1), 1842 kbps, 24 fps, 0,351 bpp
Аудио: MP3 / 2.0 / 48 kHz / 192 kbps /

General
Complete name : F:\Last.Ones.Out.2016.WEBRip.VO.(datynet).avi
Format : AVI
Format/Info : Audio Video Interleave
File size : 1.09 GiB
Duration : 1 h 16 min
Overall bit rate : 2 041 kb/s
Writing application : VirtualDubModRus 1.5.10.2 (build 2542/release)
Writing library : VirtualDubMod build 2542/release

Video
ID : 0
Format : MPEG-4 Visual
Format profile : Advanced Simple@L5
Format settings, BVOP : 1
Format settings, QPel : No
Format settings, GMC : No warppoints
Format settings, Matrix : Custom
Codec ID : XVID
Codec ID/Hint : XviD
Duration : 1 h 16 min
Bit rate : 1 843 kb/s
Width : 720 pixels
Height : 304 pixels
Display aspect ratio : 2.35:1
Frame rate : 24.000 FPS
Color space : YUV
Chroma subsampling : 4:2:0
Bit depth : 8 bits
Scan type : Progressive
Compression mode : Lossy
Bits/(Pixel*Frame) : 0.351
Stream size : 1 004 MiB (90%)
Writing library : XviD 73

Audio
ID : 1
Format : MPEG Audio
Format version : Version 1
Format profile : Layer 3
Codec ID : 55
Codec ID/Hint : MP3
Duration : 1 h 16 min
Bit rate mode : Constant
Bit rate : 192 kb/s
Channel(s) : 2 channels
Sampling rate : 48.0 kHz
Compression mode : Lossy
Stream size : 105 MiB (9%)
Alignment : Aligned on interleaves
Interleave, duration : 167 ms (4.00 video frames)
Interleave, preload duration : 216 ms
pb.wtf



Скачать Одни из последних через торрент http://i104.fastpic.ru/big/2018/0531/24/8a230a8779745b34a9f4bd2a17389d24.jpg Скачать фильм Одни из последних через торрент бесплантно в хорошем качестве Описание: Американец оказывается в Африке во время зомби-апокалипсиса, и теперь ему придётся доверится помощи трех таинственных ... 10 10 2
Торрент: Зарегистрирован [2018-05-31 19:23] · скачан: 72 раз
Статус: √ проверено
Размер: 1.09 GB
Как cкачать? Как скачать Одни из последних через торрент | qTorrent

28-11-2019 20:33  

Отключить всю рекламу на сайте

02-06-2018 15:22 Одни из последних Скачать торрент  

что то ни кто не коментируетpb.wtf



08-06-2018 14:46 Одни из последних Скачать торрент  

задрали эти зомбиpb.wtf



    Дорогой пользователь! Огромная просьба, поблагодарите релизера, оцените раздачу и оставьте свои комментарий, если Вы скачали Одни из последних через торрент бесплатно! Внесите свою лепту в развитие PiratBit!
    Комментировать посты могут только пользователи прошедшие не сложную регистрацию
    Показать сообщения:    

    Одни из последних через торрент
    Скачать бесплатно Одни из последних
    Одни из последних скачать торрент
    Одни из последних смотреть онлайн
    Cкачать фильм Одни из последних бесплатно
    Одни из последних скачать торрент в хорошем качестве
    Одни из последних смотреть онлайн бесплатно в хорошем качестве


    Вы не можете начинать темы
    Вы не можете отвечать на сообщения
    Вы не можете редактировать свои сообщения
    Вы не можете удалять свои сообщения
    Вы не можете голосовать в опросах
    Вы не можете прикреплять файлы к сообщениям
    Вы можете скачивать файлы