Ссылка на приватное зеркало нашего сайта всего за 1$. Внимание количество ограничено!!!

2 сезон

iTunes

1 сезон

1

2 сезон

2 сезон

iTunes

1 сезон

RePack

30

Ultimate

ВАЖНО

ИГРА 18+

pack

RePack

MK11
pack

Забери бонус

RePack

jed

!!Акция!!

Alien_Rage

RePack

fifa19

RePack

Assassins Creed: Odyssey

RePack

NEED FOR SPEED™ PAYBACK

4 сезон

9 сезон

Бесстыжие 9 сезон

Все сериалы

все сериалы на PB.wtf

RePack

FAR CRY 5
  

Я – зомби / iZombie / Сезон: 4 / Серии: 1-13 из 13 (Майкл Филдс, Майрзи Алмас, Джейсон Блум) [2018, ужасы, драма, комедия, криминал, WEB-DL 720p] MVO [NewStudio] pb.wtf

Я – зомби через торрент pb.wtf

Размер: 14.28 GB | Добавлен: 2 года 5 мес. назад | Торрент скачан:48 раз
Скачать  

31-05-2018 21:16 Я – зомби Скачать торрент  

Я – зомби / iZombie
Информация о фильме:

Название: Я - зомби
Оригинальное название: iZombie
Год выпуска: 2018
Страна: США / DC Entertainment, Spondoolie Entertainment, Vertigo Productions, Warner Bros. Television
Жанр: ужасы, драма, комедия, криминал
Продолжительность: ~ 00:44:00 серия (4 сезон)
Перевод: Профессиональный многоголосый |
Субтитры: отсутствуют

Режиссер: Майкл Филдс, Майрзи Алмас, Джейсон Блум

rating

В ролях:


Роуз МакАйвер (Olivia Moore), Малкольм Гудвин (Clive Babineaux), Рахул Коли (Ravi Chakrabarti), Роберт Бакли (Major Lilywhite), Дэвид Андерс (Blaine DeBeers), Элисон Мичалка (Peyton Charles), Брайс Ходжсон (Don Everhart), Лиэнн Лэпп (Gilda), Джессика Хэрмон (Dale Bozzio), Стивен Уэбер (Vaughn Du Clark), Андре Трикоте (Chief), Грег Финли (Drake Holloway)

Описание:

В центре сюжета - студентка медицинского факультета Оливия «Лив» Мур, для которой последствия одной из вечеринок стали переломным моментом в жизни, превратившим её в зомби. Жизнерадостная, активная и пышущая здоровьем раньше, теперь Лив похожа на представителя готов - с бледной кожей, тёмными кругами вокруг глаз и почти белыми волосами. Она устраивается на работу в офис коронера, доктора Рави Чакрабарти, чтобы иметь доступ к мозгам, которые ей приходится есть, чтобы поддерживать свою человеческую сущность. Однако с каждым съеденным ею мозгом она наследует воспоминания трупа. С помощью босса доктора Чакрабарти, узнавшего её секрет, и детектива полиции Клайва Бабино Лив способна разгадывать убийства тех людей, чей мозг она съела.

Информация о файле:

Качество: WEB-DL 720p
Формат: MKV

Видео: ~ 4000 kbps, 1280x720 (16:9), 23.976 fps
Аудио#1 : AC3, 48 KHz, 6 ch, 384 kbps
Аудио#2 : AC3, 48 KHz, 6 ch, 384 kbps


Релиз группы:

скриншот   скриншот   скриншот   скриншот  

Общее
Уникальный идентификатор : 187886279823891694240712158141582046501 (0x8D5994CC7CDC4BDC9C378959E3667525)
Полное имя : F:\iZombie (Season 04) NewStudio 720\iZombie.s04e01.WEBDL.720p.NewStudio.TV.BLACKTIR.mkv
Формат : Matroska
Версия формата : Version 4 / Version 2
Размер файла : 1,10 Гбайт
Продолжительность : 41 м. 44 с.
Режим общего битрейта : Переменный
Общий поток : 3763 Кбит/сек
Дата кодирования : UTC 2018-03-01 22:24:12
Программа кодирования : mkvmerge v18.0.0 ('Apricity') 64-bit
Библиотека кодирования : libebml v1.3.5 + libmatroska v1.4.8

Видео
Идентификатор : 1
Формат : AVC
Формат/Информация : Advanced Video Codec
Профиль формата : Main@L3.1
Параметр CABAC формата : Да
Параметр RefFrames формата : 3 кадра
Идентификатор кодека : V_MPEG4/ISO/AVC
Продолжительность : 41 м. 43 с.
Вид битрейта : Переменный
Битрейт : 4000 Кбит/сек
Максимальный битрейт : 4500 Кбит/сек
Ширина : 1280 пикселей
Высота : 720 пикселей
Соотношение сторон : 16:9
Режим частоты кадров : Постоянный
Частота кадров : 23,976 (24000/1001) кадра/сек
Цветовое пространство : YUV
Субдискретизация насыщенности : 4:2:0
Битовая глубина : 8 бит
Тип развёртки : Прогрессивная
Бит/(Пиксели*Кадры) : 0.136
Размер потока : 893 Мбайт (80%)
Библиотека кодирования : x264 core 148 r2715 7e75228
Настройки программы : cabac=1 / ref=3 / deblock=1:0:0 / analyse=0x1:0x111 / me=umh / subme=10 / psy=1 / psy_rd=1.00:0.00 / mixed_ref=1 / me_range=24 / chroma_me=1 / trellis=2 / 8x8dct=0 / cqm=0 / deadzone=21,11 / fast_pskip=1 / chroma_qp_offset=-2 / threads=8 / lookahead_threads=1 / sliced_threads=0 / nr=0 / decimate=1 / interlaced=0 / bluray_compat=0 / stitchable=1 / constrained_intra=0 / bframes=2 / b_pyramid=0 / b_adapt=2 / b_bias=0 / direct=3 / weightb=1 / open_gop=0 / weightp=2 / keyint=48 / keyint_min=25 / scenecut=0 / intra_refresh=0 / rc_lookahead=48 / rc=2pass / mbtree=1 / bitrate=3000 / ratetol=1.0 / qcomp=0.50 / qpmin=6 / qpmax=51 / qpstep=4 / cplxblur=20.0 / qblur=0.5 / vbv_maxrate=4500 / vbv_bufsize=6000 / nal_hrd=vbr / filler=0 / ip_ratio=1.40 / aq=1:1.00
Язык : English
Default : Да
Forced : Нет

Аудио #1
Идентификатор : 2
Формат : AC-3
Формат/Информация : Audio Coding 3
Расширение режима : CM (complete main)
Параметр Endianness формата : Big
Идентификатор кодека : A_AC3
Продолжительность : 41 м. 44 с.
Вид битрейта : Постоянный
Битрейт : 384 Кбит/сек
Каналы : 6 каналов
Расположение каналов : Front: L C R, Side: L R, LFE
Частота : 48,0 КГц
Частота кадров : 31,250 кадров/сек (1536 spf)
Метод сжатия : С потерями
Размер потока : 115 Мбайт (10%)
Заголовок : NewStudio.TV
Язык : Russian
Default : Да
Forced : Нет

Аудио #2
Идентификатор : 3
Формат : AC-3
Формат/Информация : Audio Coding 3
Расширение режима : CM (complete main)
Параметр Endianness формата : Big
Идентификатор кодека : A_AC3
Продолжительность : 41 м. 44 с.
Вид битрейта : Постоянный
Битрейт : 384 Кбит/сек
Каналы : 6 каналов
Расположение каналов : Front: L C R, Side: L R, LFE
Частота : 48,0 КГц
Частота кадров : 31,250 кадров/сек (1536 spf)
Метод сжатия : С потерями
Размер потока : 115 Мбайт (10%)
Заголовок : Original
Язык : English
Default : Нет
Forced : Нет

pb.wtf



Скачать Я – зомби через торрент http://i99.fastpic.ru/big/2018/0219/cb/671bd70a19b4407d0c0ea907aa33b7cb.png Скачать фильм Я – зомби через торрент бесплантно в хорошем качестве Описание: В центре сюжета - студентка медицинского факультета Оливия «Лив» Мур, для которой последствия одной из вечеринок стали переломным ... 10 10 3
Info! Серебряная раздача, засчитывается только 50% скачанного.
Торрент: Зарегистрирован [2018-06-12 09:22] · скачан: 48 раз
Статус: √ проверено
Размер: 14.28 GB
Как cкачать? Как скачать Я – зомби через торрент | qTorrent

% Раздел Тема Автор DL S | L
Зарубежные сериалы [ 6.98 GB ] Я – зомби / iZombie / Сезон: 4 / Серии: 1-13 из 13 [2018 WEB-DLRip] MVO [NewStudio] bober100 Скачать
1 | 0
Зарубежные сериалы [ 24.89 GB ] Я – зомби / iZombie / Сезон: 4 / Серии: 1-13 из 13 [2018 WEB-DL 1080p] MVO [NewStudio] bober100 Скачать
1 | 0
Зарубежные сериалы [ 14.28 GB ] Я – зомби / iZombie / Сезон: 4 / Серии: 1-13 из 13 [2018 WEBRip 720p] MVO [Jaskier] bober100 Скачать
1 | 0
Зарубежные сериалы [ 6.71 GB ] Я – зомби / iZombie / Сезон: 4 / Серии: 1-13 из 13 [2018 WEBRip] MVO [Jaskier] bober100 Скачать
1 | 0
Зарубежные сериалы [ 24.89 GB ] Я – зомби / iZombie / Сезон: 4 / Серии: 1-13 из 13 [2018 WEBRip 1080p] MVO [Jaskier] bober100 Скачать
1 | 0
Зарубежные сериалы [ 18.92 GB ] Я – зомби / iZombie / Сезон: 4 / Серии: 1-13 из 13 [2018 WEB-DL 720p] MVO [BaibaKo] bober100 Скачать
1 | 0
Зарубежные сериалы [ 6.27 GB ] Я – зомби / iZombie / Сезон: 4 / Серия 1-13 из 13 [2018 WEB-DLRip] MVO [BaibaKo] GEKADOL Скачать
1 | 0

28-11-2019 20:33  

Отключить всю рекламу на сайте

    Дорогой пользователь! Огромная просьба, поблагодарите релизера, оцените раздачу и оставьте свои комментарий, если Вы скачали Я – зомби через торрент бесплатно! Внесите свою лепту в развитие PiratBit!
    Комментировать посты могут только пользователи прошедшие не сложную регистрацию
    Показать сообщения:    

    Я – зомби через торрент
    Скачать бесплатно Я – зомби
    Я – зомби скачать торрент
    Я – зомби смотреть онлайн
    Cкачать фильм Я – зомби бесплатно
    Я – зомби скачать торрент в хорошем качестве
    Я – зомби смотреть онлайн бесплатно в хорошем качестве


    Вы не можете начинать темы
    Вы не можете отвечать на сообщения
    Вы не можете редактировать свои сообщения
    Вы не можете удалять свои сообщения
    Вы не можете голосовать в опросах
    Вы не можете прикреплять файлы к сообщениям
    Вы можете скачивать файлы