Ссылка на приватное зеркало нашего сайта всего за 1$. Внимание количество ограничено!!!

2 сезон

iTunes

1 сезон

1

2 сезон

2 сезон

iTunes

1 сезон

RePack

30

Новинка

ВАЖНО

ИГРА 18+

pack

RePack

MK11
pack

Забери бонус

RePack

jed

!!Акция!!

Alien_Rage

RePack

fifa19

RePack

Assassins Creed: Odyssey

RePack

NEED FOR SPEED™ PAYBACK

4 сезон

9 сезон

Бесстыжие 9 сезон

Все сериалы

все сериалы на PB.wtf

RePack

FAR CRY 5
  

Путь / The Path / Сезон: 3 / Серии: 1-13 из 13 (Майк Кэхилл, Майкл Уивер) [2018, драма, WEBRip 720p] MVO [Jaskier] pb.wtf

Путь через торрент pb.wtf

Размер: 10.6 GB | Добавлен: 2 года 6 мес. назад | Торрент скачан:8 раз
Скачать  

01-06-2018 06:11 Путь Скачать торрент  

Путь / The Path
Год выпуска: 2018
Страна: США
Жанр: драма
Продолжительность: ~ 00:47:00
Перевод: Профессиональный многоголосый | Jaskier
Субтитры: отсутствуют

Режиссер: Майк Кэхилл, Майкл Уивер

rating

В ролях:

Хью Дэнси, Аарон Пол, Мишель Монахэн, Али Ан, Питер Фридман, Макс Эрих, Кларк Миддлтон, Кайли Вернофф, Уитни Краудер

Описание:

Семья Лейн оказалась в эпицентре бурных событий вокруг культа, который возглавляет харизматичный Кэл Робертс (Хью Дэнси). Кэл запутывается в сложных отношениях с двумя другими членами своего спорного движения - красавицей Сарой и её мужем Эдди. По ходу действия Кэлу предстоит сразится с собственными демонами и непомерными амбициями в желании вывести свой культ на новый уровень.

Качество: WEBRip 720p
Формат: MKV

Видео: H.264, ~ 2000 kbps, 1280х720
Аудио#1: AC3, 2 ch, 192 kbps - RU
Аудио#2: AC3, 2 ch, 192 kbps - EN


скриншот   скриншот   скриншот  

Общее
Уникальный идентификатор : 218450111262828781681978323549703828920 (0xA457F6084347C2F78FDD8F562AA2F5B8)
Полное имя : F:\The Path. Season 3 (WEBRip l 720p l Jaskier)\The.Path.S03E01.720p.HULU.WEBRip.DDP2.0.H.264-Jaskier.mkv
Формат : Matroska
Версия формата : Version 2
Размер файла : 917 Мбайт
Продолжительность : 54 м. 4 с.
Общий поток : 2372 Кбит/сек
Дата кодирования : UTC 2018-02-27 16:17:07
Программа кодирования : mkvmerge v7.8.0 ('River Man') 32bit built on Apr 3 2015 12:11:22
Библиотека кодирования : libebml v1.3.1 + libmatroska v1.4.2

Видео
Идентификатор : 1
Формат : AVC
Формат/Информация : Advanced Video Codec
Профиль формата : High@L3.1
Параметр CABAC формата : Да
Параметр RefFrames формата : 5 кадров
Идентификатор кодека : V_MPEG4/ISO/AVC
Продолжительность : 54 м. 4 с.
Битрейт : 1941 Кбит/сек
Ширина : 1280 пикселей
Высота : 720 пикселей
Соотношение сторон : 16:9
Режим частоты кадров : Постоянный
Частота кадров : 23,976 кадра/сек
Цветовое пространство : YUV
Субдискретизация насыщенности : 4:2:0
Битовая глубина : 8 бит
Тип развёртки : Прогрессивная
Бит/(Пиксели*Кадры) : 0.088
Размер потока : 751 Мбайт (82%)
Язык : English
Default : Да
Forced : Нет

Аудио #1
Идентификатор : 2
Формат : AC-3
Формат/Информация : Audio Coding 3
Расширение режима : CM (complete main)
Параметр Endianness формата : Big
Идентификатор кодека : A_AC3
Продолжительность : 54 м. 4 с.
Вид битрейта : Постоянный
Битрейт : 192 Кбит/сек
Каналы : 2 канала
Расположение каналов : Front: L R
Частота : 48,0 КГц
Частота кадров : 31,250 кадров/сек (1536 spf)
Метод сжатия : С потерями
Размер потока : 74,3 Мбайт (8%)
Заголовок : Jaskier
Язык : Russian
Default : Да
Forced : Нет

Аудио #2
Идентификатор : 3
Формат : AC-3
Формат/Информация : Audio Coding 3
Расширение режима : CM (complete main)
Параметр Endianness формата : Big
Идентификатор кодека : A_AC3
Продолжительность : 54 м. 4 с.
Вид битрейта : Постоянный
Битрейт : 192 Кбит/сек
Каналы : 2 канала
Расположение каналов : Front: L R
Частота : 48,0 КГц
Частота кадров : 31,250 кадров/сек (1536 spf)
Метод сжатия : С потерями
Размер потока : 74,3 Мбайт (8%)
Язык : English
Default : Нет
Forced : Нет

pb.wtf



Скачать Путь через торрент http://img12.lostpic.net/2018/06/01/aba3a3bc83b7adec6d49f12acce27696.jpg Скачать фильм Путь через торрент бесплантно в хорошем качестве Описание: Семья Лейн оказалась в эпицентре бурных событий вокруг культа, который возглавляет харизматичный Кэл Робертс (Хью Дэнси). Кэл ... 9.5 10 4
Info! Серебряная раздача, засчитывается только 50% скачанного.
Торрент: Зарегистрирован [2018-06-01 06:11] · скачан: 8 раз
Статус: √ проверено
Размер: 10.6 GB
Как cкачать? Как скачать Путь через торрент | qTorrent

% Раздел Тема Автор DL S | L
Зарубежные сериалы [ 7.58 GB ] Путь / The Path / Сезон: 3 / Серии: 1-13 из 13 [2018 WEBRip] MVO [Jaskier] bober100 Скачать
1 | 0
Зарубежные сериалы [ 9.09 GB ] Путь / The Path / Сезон: 3 / Серии: 1-13 из 13 [2018 WEBRip] MVO [BaibaKo] bober100 Скачать
1 | 0
Зарубежные сериалы [ 38.09 GB ] Путь / The Path / Сезон: 3 / Серия: 1-13 из 13 [2018 WEBRip 1080p] MVO [BaibaKo] bober100 Скачать
1 | 0

28-11-2019 20:33  

Отключить всю рекламу на сайте

    Дорогой пользователь! Огромная просьба, поблагодарите релизера, оцените раздачу и оставьте свои комментарий, если Вы скачали Путь через торрент бесплатно! Внесите свою лепту в развитие PiratBit!
    Комментировать посты могут только пользователи прошедшие не сложную регистрацию
    Показать сообщения:    

    Путь через торрент
    Скачать бесплатно Путь
    Путь скачать торрент
    Путь смотреть онлайн
    Cкачать фильм Путь бесплатно
    Путь скачать торрент в хорошем качестве
    Путь смотреть онлайн бесплатно в хорошем качестве


    Вы не можете начинать темы
    Вы не можете отвечать на сообщения
    Вы не можете редактировать свои сообщения
    Вы не можете удалять свои сообщения
    Вы не можете голосовать в опросах
    Вы не можете прикреплять файлы к сообщениям
    Вы можете скачивать файлы