Marvel's Avengers Deluxe Edition (супер цена) 159р. Внимание количество ограничено!!!

2 сезон

iTunes

iTunes

1

iTunes

iTunes

iTunes

WEBRip

iTunes

30
pack

Новость дня

ВАЖНО

!!Акция!!

Alien_RageХит недели

RePack

Horizon Zero Dawn

ИГРА 18+

pack

RePack

jed

!!Акция!!

Alien_Rage

RePack

fifa19

RePack

Assassins Creed: Odyssey

RePack

NEED FOR SPEED™ PAYBACK

4 сезон

9 сезон

Бесстыжие 9 сезон

Все сериалы

все сериалы на PB.wtf

RePack

FAR CRY 5
  

Счастливый билет / Kaikki oikein (Ленка Хелльстедт) [2018, комедия, BDRip 720p] MVO ["Синема УС"] pb.wtf

Счастливый билет через торрент pb.wtf

Размер: 3.86 GB | Добавлен: 2 года 3 мес. назад | Торрент скачан:35 раз
Скачать  

01-06-2018 06:36 Счастливый билет Скачать торрент  

Счастливый билет / Kaikki oikeinГод выпуска: 2018
Страна: Финляндия
Жанр: комедия
Продолжительность: 01:28:05
Перевод: Любительский (многоголосый) | "Синема УС"
Субтитры: отсутствуют

Режиссер: Ленка Хелльстедт

rating

В ролях:

Памела Тола, Малла Малмиваара, Элиас Вестерберг, Кристина Халтту, Антти Луусуаниеми, Матти Оннисмаа, Реа Мауранен, Юхо Кескитало, Пирьо Лонка

Описание:

Эйви и Кари самая обычная семейная пора, но всё меняется после того, как Эйви приобретает лотерейный билет.

Качество: BDRip 720p
Формат: MKV

Видео: h.264, 5 819 kb/s 1280x536
Аудио: Русский (AC3, 2 ch, 448 Кбит/с)
скриншот  скриншот  скриншот  

Общее
Уникальный идентификатор : 204116626845007320705050247142348514776 (0x998F6EB060B6EDA09C4F8B3A700D65D8)
Полное имя : F:\Kaikki.Oikein.2018.P.BDRip.72Op_KOSHARA.mkv
Формат : Matroska
Версия формата : Version 2
Размер файла : 3,86 Гбайт
Продолжительность : 1 ч. 28 м.
Режим общего битрейта : Переменный
Общий поток : 6269 Кбит/сек
Дата кодирования : UTC 2018-05-26 15:31:50
Программа кодирования : mkvmerge v8.3.0 ('Over the Horizon') 64bit
Библиотека кодирования : libebml v1.3.1 + libmatroska v1.4.2

Видео
Идентификатор : 1
Формат : AVC
Формат/Информация : Advanced Video Codec
Профиль формата : High@L4.1
Параметр CABAC формата : Да
Параметр RefFrames формата : 4 кадра
Идентификатор кодека : V_MPEG4/ISO/AVC
Продолжительность : 1 ч. 28 м.
Вид битрейта : Переменный
Битрейт : 5819 Кбит/сек
Максимальный битрейт : 6500 Кбит/сек
Ширина : 1280 пикселей
Высота : 536 пикселей
Соотношение сторон : 2,40:1
Режим частоты кадров : Постоянный
Частота кадров : 23,976 (24000/1001) кадра/сек
Стандарт вещания : Component
Цветовое пространство : YUV
Субдискретизация насыщенности : 4:2:0
Битовая глубина : 8 бит
Тип развёртки : Прогрессивная
Бит/(Пиксели*Кадры) : 0.346
Размер потока : 3,50 Гбайт (91%)
Default : Да
Forced : Нет
Цветовой диапазон : Limited
Основные цвета : BT.709
Характеристики трансфера : BT.709
Коэффициенты матрицы : BT.709

Аудио
Идентификатор : 2
Формат : AC-3
Формат/Информация : Audio Coding 3
Расширение режима : CM (complete main)
Параметр Endianness формата : Big
Идентификатор кодека : A_AC3
Продолжительность : 1 ч. 28 м.
Вид битрейта : Постоянный
Битрейт : 448 Кбит/сек
Каналы : 2 канала
Расположение каналов : Front: L R
Частота : 48,0 КГц
Частота кадров : 31,250 кадров/сек (1536 spf)
Метод сжатия : С потерями
Размер потока : 282 Мбайт (7%)
Default : Да
Forced : Нет

pb.wtf



Скачать Счастливый билет через торрент http://img12.lostpic.net/2018/06/01/054c1fbcff953e0618cfd87164b806d7.jpg Скачать фильм Счастливый билет через торрент бесплантно в хорошем качестве Описание: Эйви и Кари самая обычная семейная пора, но всё меняется после того, как Эйви приобретает лотерейный ... 7 10 3
Торрент: Зарегистрирован [2018-06-01 06:36] · скачан: 35 раз
Статус: # сомнительно
Размер: 3.86 GB
Как cкачать? Как скачать Счастливый билет через торрент | qTorrent

% Раздел Тема Автор DL S | L
T Фильмы (мультфильмы) cо спонсором показа (Новинки AVI/MKV) [ 1.37 GB ] Счастливый билет / Kaikki oikein [2018 HDRip] MVO ["Синема УС"] bober100 Скачать
1 | 0

28-11-2019 20:33  

Отключить всю рекламу на сайте

    Дорогой пользователь! Огромная просьба, поблагодарите релизера, оцените раздачу и оставьте свои комментарий, если Вы скачали Счастливый билет через торрент бесплатно! Внесите свою лепту в развитие PiratBit!
    Комментировать посты могут только пользователи прошедшие не сложную регистрацию
    Показать сообщения:    

    Счастливый билет через торрент
    Скачать бесплатно Счастливый билет
    Счастливый билет скачать торрент
    Счастливый билет смотреть онлайн
    Cкачать фильм Счастливый билет бесплатно
    Счастливый билет скачать торрент в хорошем качестве
    Счастливый билет смотреть онлайн бесплатно в хорошем качестве


    Вы не можете начинать темы
    Вы не можете отвечать на сообщения
    Вы не можете редактировать свои сообщения
    Вы не можете удалять свои сообщения
    Вы не можете голосовать в опросах
    Вы не можете прикреплять файлы к сообщениям
    Вы можете скачивать файлы