Ссылка на приватное зеркало всего за 1$. Внимание количество ограничено!!!

iTunes

iTunes

iTunes

1

iTunes

iTunes

iTunes

iTunes

iTunes

30
pack

$ от Little Big

ВАЖНО

!!Акция!!

Alien_RageХит недели

RePack

Resident Evil 21

ИГРА 18+

pack

RePack

jed

!!Акция!!

Alien_Rage

RePack

fifa19

RePack

Assassins Creed: Odyssey

RePack

NEED FOR SPEED™ PAYBACK

4 сезон

9 сезон

Бесстыжие 9 сезон

Все сериалы

все сериалы на PB.wtf

RePack

FAR CRY 5
  

Невероятная история о гигантской груше / Den utrolige historie om den kæmpestore pære (Амалия Нэсби Фик, Юрген Лердам, Филип Эйнштейн Липски) [2017, Мультфильм, BDRip от R.G.Resident] DUB [Лицензия] pb.wtf

Невероятная история о гигантской груше через торрент pb.wtf

Размер: 1.46 GB | Добавлен: 2 года 1 мес. назад | Торрент скачан:338 раз
Скачать  

01-06-2018 07:13 Невероятная история о гигантской груше Скачать торрент  

Невероятная история о гигантской груше / Den utrolige historie om den kæmpestore pære

Год выпуска: 2017
Страна: Дания
Жанр: мультфильм

Продолжительность: 01:18:29
Перевод: Дубляж - [Лицензия]
Режиссер: Амалия Нэсби Фик , Юрген Лердам , Филип Эйнштейн Липски
В ролях:

Альфред Бьерр Ларсен (Sebastian, озвучка), Лива Эльвира Магнуссен (Mithco, озвучка), Петер Фрёдин (Professor Glykose, озвучка), Хенрик Койфоэд (Borgmester JB, озвучка), Петер Плаугборг (Viceborgmester Kvist, озвучка), Сёрен Пильмарк (Ulysses Karlsen, озвучка), Якоб Офтебро (Piratkaptajnen, озвучка), Питер Зельдер (Bodega Piraten, озвучка), Бьярне Хенриксен (Oldefar, озвучка), Петер Ауде (Oberst Rekyl, озвучка)
Описание:
Эта невероятная сказка берёт своё начало в прекрасном Солнечном городе на берегу моря, где живут Слон Себастьян и его лучший друг Кот Митчо. Однажды друзья находят бутылку с посланием от пропавшего бургомистра, который просит спасти его с Таинственного острова.
Рейтинг:
rating
Качество: BDRip
Формат: AVI
Видео: XviD, 720x384 (1.85:1), 2204 kbps, 24 fps, 0,332 bpp
Аудио: AC3 / 5.1 / 48 kHz / 448 kbps /

General
Complete name : F:\Giant.Pear.2017.BDRip.R.G.Resident.avi
Format : AVI
Format/Info : Audio Video Interleave
File size : 1.46 GiB
Duration : 1 h 18 min
Overall bit rate : 2 662 kb/s
Writing application : VirtualDubModRus 1.5.10.2 (build 2542/release)
Writing library : VirtualDubMod build 2542/release

Video
ID : 0
Format : MPEG-4 Visual
Format profile : Advanced Simple@L5
Format settings, BVOP : 1
Format settings, QPel : No
Format settings, GMC : No warppoints
Format settings, Matrix : Custom
Codec ID : XVID
Codec ID/Hint : XviD
Duration : 1 h 18 min
Bit rate : 2 204 kb/s
Width : 720 pixels
Height : 384 pixels
Display aspect ratio : 1.85:1
Frame rate : 24.000 FPS
Color space : YUV
Chroma subsampling : 4:2:0
Bit depth : 8 bits
Scan type : Progressive
Compression mode : Lossy
Bits/(Pixel*Frame) : 0.332
Stream size : 1.21 GiB (83%)
Writing library : XviD 73

Audio
ID : 1
Format : AC-3
Format/Info : Audio Coding 3
Mode extension : CM (complete main)
Format settings, Endianness : Big
Codec ID : 2000
Duration : 1 h 18 min
Bit rate mode : Constant
Bit rate : 448 kb/s
Channel(s) : 6 channels
Channel positions : Front: L C R, Side: L R, LFE
Sampling rate : 48.0 kHz
Frame rate : 31.250 FPS (1536 spf)
Compression mode : Lossy
Stream size : 252 MiB (17%)
Alignment : Split accross interleaves
Interleave, duration : 42 ms (1.00 video frame)
Interleave, preload duration : 500 ms
pb.wtf



Скачать Невероятная история о гигантской груше через торрент http://i77.fastpic.ru/big/2016/0417/a7/808a646271c761f7c7d87df3d366b3a7.png Скачать фильм Невероятная история о гигантской груше через торрент бесплантно в хорошем качестве Описание: Эта невероятная сказка берёт своё начало в прекрасном Солнечном городе на берегу моря, где живут Слон Себастьян и его лучший друг ... 8.4 10 9
Info! Золотая раздача, скачанное не засчитывается.
Торрент: Зарегистрирован [2018-06-01 07:13] · скачан: 338 раз
Статус: √ проверено
Размер: 1.46 GB
Как cкачать? Как скачать Невероятная история о гигантской груше через торрент | qTorrent

% Раздел Тема Автор DL S | L
Иностранные мультфильмы [ 1.46 GB ] Невероятная история о гигантской груше / Den utrolige historie om den kæmpestore pære [2017 мультфильм BDRip] - [] Twi7ter Скачать
1 | 0
Иностранные мультфильмы [ 1.37 GB ] Невероятная история о гигантской груше / Den utrolige historie om den kæmpestore pære [2017 Мультфильм HDRip] DUB [] bober100 Скачать
1 | 0
Зарубежные Мультфильмы (BDRip 1080p, 720p, Blu-ray, BD-Remux) [ 12.12 GB ] Невероятная история о гигантской груше / Den utrolige historie om den kæmpestore pære [2017 Мультфильм Blu-ray 1080p] [Rus Transfer] DUB [] bober100 Скачать
1 | 0

28-11-2019 20:33  

Отключить всю рекламу на сайте

    Дорогой пользователь! Огромная просьба, поблагодарите релизера, оцените раздачу и оставьте свои комментарий, если Вы скачали Невероятная история о гигантской груше через торрент бесплатно! Внесите свою лепту в развитие PiratBit!
    Комментировать посты могут только пользователи прошедшие не сложную регистрацию
    Показать сообщения:    

    Невероятная история о гигантской груше через торрент
    Скачать бесплатно Невероятная история о гигантской груше
    Невероятная история о гигантской груше скачать торрент
    Невероятная история о гигантской груше смотреть онлайн
    Cкачать фильм Невероятная история о гигантской груше бесплатно
    Невероятная история о гигантской груше скачать торрент в хорошем качестве
    Невероятная история о гигантской груше смотреть онлайн бесплатно в хорошем качестве


    Вы не можете начинать темы
    Вы не можете отвечать на сообщения
    Вы не можете редактировать свои сообщения
    Вы не можете удалять свои сообщения
    Вы не можете голосовать в опросах
    Вы не можете прикреплять файлы к сообщениям
    Вы можете скачивать файлы