Всегда рабочее зеркало без VPN и Proxy просто перед .vidak.icu напиши любое слово или цифру, Пример http://fqd0.vidak.icu

Лицензия

MVO

1 сезон

1

1 сезон

iTunes

1 сезон

13

1 сезон

Deluxe

pack

Рекомендуем

Repack

30

ВАЖНО

RePack

MK11

RePack

jed

RePack

fifa19

RePack

RDR2

RePack

NEED FOR SPEED™ PAYBACK

Кинопоиск HD

6 сезон

 Острые козырьки 6 сезон

Все сериалы

все сериалы на PB.wtf

RePack

FAR CRY 5
  
Magnet ссылка

Джейсон Борн / Jason Bourne (Пол Гринграсс) [2016, боевик, триллер, UHD BDRemux2160p] DUB+ 4xAVO + VO pb.wtf

Джейсон Борн через торрент pb.wtf

Раздают: 1 [ 0 KB/s ]
Размер: 75.77 GB | Добавлен: 4 года 2 мес. назад | Торрент скачан:28 раз
Смотреть онлайн Джейсон Борн | Скачать    Ребята, помогите собрать деньги на оплату серверов!!!

02-06-2018 05:40 Джейсон Борн Скачать торрент  

Джейсон Борн / Jason Bourne«Вы знаете его имя»
Год выпуска: 2016
Страна: Великобритания, Китай, США
Жанр: боевик, триллер
Продолжительность: 02:03:11
Перевод: Дублированный, авторский, любительский одноголосый
Субтитры: Русские (forced, full), английские (full, SDH, SDH-Colored)
Режиссер: Пол Гринграсс
В ролях:

Мэтт Дэймон (Jason Bourne), Алисия Викандер (Heather Lee), Томми Ли Джонс (CIA Director Robert Dewey), Венсан Кассель (Asset), Джулия Стайлз (Nicky Parsons), Риз Ахмед (Aaron Kalloor), Ато Эссонда (Craig Jeffers), Скотт Шеперд (Director NI Edwin Russell), Билл Кэмп (Malcolm Smith), Винценц Кифер (Christian Dassault), Стефан Канкен (Baumen), Бен Стиляну (Greek Van Driver)
Описание:
Мир на грани катастрофы, а значит пришло время ему вернуться. Неаполь, Мюнхен, Нью-Йорк - его имя знают повсюду. Элитный суперагент, лучший из лучших, даже в Лас-Вегасе игра пойдет по его правилам. Он - Джейсон Борн.
Рейтинг:

MPAA: PG-13 - Детям до 13 лет просмотр не желателен
Качество: UHD BDRemux2160p
Формат: MKV
Видео: HEVC, HDR, 56548 Кбит/с, 3840x2160, 23.976 кадр/с
Аудио 1: Russian DTS / 5.1 / 48 kHz / 768 kbps / 24-bit |Dub, Blu-Ray|
Аудио 2: Russian AC3 / 5.1 / 48 kHz / 448 kbps / 24-bit |А. Гаврилов|
Аудио 3: Russian DTS-HD Master Audio / 7.1 / 48 kHz / 5720 kbps / 24-bit (DTS Core: 5.1 / 48 kHz / 1509 kbps / 24-bit) |Ю. Живов|
Аудио 4: Russian DTS-HD Master Audio / 7.1 / 48 kHz / 5707 kbps / 24-bit (DTS Core: 5.1 / 48 kHz / 1509 kbps / 24-bit) |Д. Есарев|
Аудио 5: Russian DTS-HD Master Audio / 7.1 / 48 kHz / 5651 kbps / 24-bit (DTS Core: 5.1 / 48 kHz / 1509 kbps / 24-bit) |В. Назаров|
Аудио 6: Russian DTS-HD Master Audio / 7.1 / 48 kHz / 5710 kbps / 24-bit (DTS Core: 5.1 / 48 kHz / 1509 kbps / 24-bit) |Е. Солодухин|
Аудио 7: English DTS:X/DTS-HD Master Audio / 7.1-X / 48 kHz / 7515 kbps / 24-bit (DTS Core: 5.1 / 48 kHz / 1509 kbps / 24-bit) |original|
Навигация по главам: есть
Общее
Уникальный идентификатор : 228806426109128089578550884483199436071 (0xAC2283C6BBB9A343A1FE5238EAC88527)
Полное имя : G:\HD\Джейсон Борн.2016.UHD.BluRay.Remux.2160p.mkv
Формат : Matroska
Версия формата : Version 4 / Version 2
Размер файла : 75,8 Гбайт
Продолжительность : 2 ч. 3 м.
Общий поток : 88,1 Мбит/сек
Дата кодирования : UTC 2017-12-03 12:25:30
Программа кодирования : mkvmerge v18.0.0 ('Apricity') 64-bit
Библиотека кодирования : libebml v1.3.5 + libmatroska v1.4.8
Attachments : poster.jpg

Видео
Идентификатор : 1
Формат : HEVC
Формат/Информация : High Efficiency Video Coding
Профиль формата : Main [email protected]@High
Идентификатор кодека : V_MPEGH/ISO/HEVC
Продолжительность : 2 ч. 3 м.
Битрейт : 56,5 Мбит/сек
Ширина : 3840 пикселей
Высота : 2160 пикселей
Соотношение сторон : 16:9
Режим частоты кадров : Постоянный
Частота кадров : 23,976 (24000/1001) кадра/сек
Цветовое пространство : YUV
Субдискретизация насыщенности : 4:2:0 (Type 2)
Битовая глубина : 10 бит
Бит/(Пиксели*Кадры) : 0.284
Размер потока : 48,6 Гбайт (64%)
Библиотека кодирования : ATEME Titan KFE 3.7.3 (4.7.3.1003)
Default : Да
Forced : Нет
Цветовой диапазон : Limited
Основные цвета : BT.2020
Характеристики трансфера : PQ
Коэффициенты матрицы : BT.2020 non-constant
MasteringDisplay_ColorPrimaries : R: x=0.680000 y=0.320000, G: x=0.265000 y=0.690000, B: x=0.150000 y=0.060000, White point: x=0.312700 y=0.329000
MasteringDisplay_Luminance : min: 0.0050 cd/m2, max: 1000.0000 cd/m2
MaxCLL : 960 cd/m2
MaxFALL : 105 cd/m2

Аудио #1
Идентификатор : 2
Формат : DTS
Формат/Информация : Digital Theater Systems
Идентификатор кодека : A_DTS
Продолжительность : 2 ч. 3 м.
Вид битрейта : Постоянный
Битрейт : 768 Кбит/сек
Каналы : 6 каналов
Расположение каналов : Front: L C R, Side: L R, LFE
Частота : 48,0 КГц
Частота кадров : 93,750 кадра/сек (512 SPF)
Битовая глубина : 24 бит
Метод сжатия : С потерями
Размер потока : 677 Мбайт (1%)
Заголовок : Dub, Blu-Ray
Язык : Russian
Default : Да
Forced : Нет

Аудио #2
Идентификатор : 3
Формат : AC-3
Формат/Информация : Audio Coding 3
Идентификатор кодека : A_AC3
Продолжительность : 2 ч. 3 м.
Вид битрейта : Постоянный
Битрейт : 448 Кбит/сек
Каналы : 6 каналов
Расположение каналов : Front: L C R, Side: L R, LFE
Частота : 48,0 КГц
Частота кадров : 31,250 кадров/сек (1536 SPF)
Битовая глубина : 16 бит
Метод сжатия : С потерями
Размер потока : 395 Мбайт (1%)
Заголовок : А. Гаврилов
Язык : Russian
ServiceKind/String : Complete Main
Default : Нет
Forced : Нет

Аудио #3
Идентификатор : 4
Формат : DTS
Формат/Информация : Digital Theater Systems
Профиль формата : MA / Core
Идентификатор кодека : A_DTS
Продолжительность : 2 ч. 3 м.
Вид битрейта : Переменный / Постоянный
Битрейт : 5720 Кбит/сек / 1509 Кбит/сек
Каналы : 8 каналов / 6 каналов
Расположение каналов : Front: L C R, Side: L R, Back: L R, LFE / Front: L C R, Side: L R, LFE
Частота : 48,0 КГц
Частота кадров : 93,750 кадра/сек (512 SPF)
Битовая глубина : 24 бит
Метод сжатия : Без потерь / Lossy
Размер потока : 4,92 Гбайт (6%)
Заголовок : Ю. Живов
Язык : Russian
Default : Нет
Forced : Нет

Аудио #4
Идентификатор : 5
Формат : DTS
Формат/Информация : Digital Theater Systems
Профиль формата : MA / Core
Идентификатор кодека : A_DTS
Продолжительность : 2 ч. 3 м.
Вид битрейта : Переменный / Постоянный
Битрейт : 5707 Кбит/сек / 1509 Кбит/сек
Каналы : 8 каналов / 6 каналов
Расположение каналов : Front: L C R, Side: L R, Back: L R, LFE / Front: L C R, Side: L R, LFE
Частота : 48,0 КГц
Частота кадров : 93,750 кадра/сек (512 SPF)
Битовая глубина : 24 бит
Метод сжатия : Без потерь / Lossy
Размер потока : 4,91 Гбайт (6%)
Заголовок : Д. Есарев
Язык : Russian
Default : Нет
Forced : Нет

Аудио #5
Идентификатор : 6
Формат : DTS
Формат/Информация : Digital Theater Systems
Профиль формата : MA / Core
Идентификатор кодека : A_DTS
Продолжительность : 2 ч. 3 м.
Вид битрейта : Переменный / Постоянный
Битрейт : 5651 Кбит/сек / 1509 Кбит/сек
Каналы : 8 каналов / 6 каналов
Расположение каналов : Front: L C R, Side: L R, Back: L R, LFE / Front: L C R, Side: L R, LFE
Частота : 48,0 КГц
Частота кадров : 93,750 кадра/сек (512 SPF)
Битовая глубина : 24 бит
Метод сжатия : Без потерь / Lossy
Размер потока : 4,86 Гбайт (6%)
Заголовок : В. Назаров
Язык : Russian
Default : Нет
Forced : Нет

Аудио #6
Идентификатор : 7
Формат : DTS
Формат/Информация : Digital Theater Systems
Профиль формата : MA / Core
Идентификатор кодека : A_DTS
Продолжительность : 2 ч. 3 м.
Вид битрейта : Переменный / Постоянный
Битрейт : 5710 Кбит/сек / 1509 Кбит/сек
Каналы : 8 каналов / 6 каналов
Расположение каналов : Front: L C R, Side: L R, Back: L R, LFE / Front: L C R, Side: L R, LFE
Частота : 48,0 КГц
Частота кадров : 93,750 кадра/сек (512 SPF)
Битовая глубина : 24 бит
Метод сжатия : Без потерь / Lossy
Размер потока : 4,91 Гбайт (6%)
Заголовок : Е. Солодухин
Язык : Russian
Default : Нет
Forced : Нет

Аудио #7
Идентификатор : 8
Формат : DTS
Формат/Информация : Digital Theater Systems
Профиль формата : X / MA / Core
Идентификатор кодека : A_DTS
Продолжительность : 2 ч. 3 м.
Вид битрейта : Переменный / Переменный / Постоянный
Битрейт : 7515 Кбит/сек / 7515 Кбит/сек / 1509 Кбит/сек
Каналы : Object Based / 8 каналов / 6 каналов
Расположение каналов : Object Based / Front: L C R, Side: L R, Back: L R, LFE / Front: L C R, Side: L R, LFE
Частота : / 48,0 КГц / 48,0 КГц
Частота кадров : 93,750 кадра/сек (512 SPF)
Битовая глубина : / 24 бит / 24 бит
Метод сжатия : / Lossless / Lossy
Размер потока : 6,47 Гбайт (9%)
Язык : English
Default : Нет
Forced : Нет

Текст #1
Идентификатор : 9
Формат : UTF-8
Идентификатор кодека : S_TEXT/UTF8
Идентификатор кодека/Информация : UTF-8 Plain Text
Продолжительность : 1 ч. 51 м.
Битрейт : 2 бит/сек
ElementCount : 45
Размер потока : 1,99 Кбайт (0%)
Заголовок : forced
Язык : Russian
Default : Да
Forced : Нет

Текст #2
Идентификатор : 10
Формат : UTF-8
Идентификатор кодека : S_TEXT/UTF8
Идентификатор кодека/Информация : UTF-8 Plain Text
Продолжительность : 1 ч. 53 м.
Битрейт : 65 бит/сек
ElementCount : 940
Размер потока : 54,6 Кбайт (0%)
Заголовок : full
Язык : Russian
Default : Нет
Forced : Нет

Текст #3
Идентификатор : 11
Формат : UTF-8
Идентификатор кодека : S_TEXT/UTF8
Идентификатор кодека/Информация : UTF-8 Plain Text
Продолжительность : 1 ч. 53 м.
Битрейт : 37 бит/сек
ElementCount : 1038
Размер потока : 30,9 Кбайт (0%)
Заголовок : full
Язык : English
Default : Нет
Forced : Нет

Текст #4
Идентификатор : 12
Формат : UTF-8
Идентификатор кодека : S_TEXT/UTF8
Идентификатор кодека/Информация : UTF-8 Plain Text
Продолжительность : 1 ч. 53 м.
Битрейт : 43 бит/сек
ElementCount : 1244
Размер потока : 35,7 Кбайт (0%)
Заголовок : SDH
Язык : English
Default : Нет
Forced : Нет

Текст #5
Идентификатор : 13
Формат : UTF-8
Идентификатор кодека : S_TEXT/UTF8
Идентификатор кодека/Информация : UTF-8 Plain Text
Продолжительность : 1 ч. 53 м.
Битрейт : 55 бит/сек
ElementCount : 1244
Размер потока : 45,7 Кбайт (0%)
Заголовок : SDH-Colored
Язык : English
Default : Нет
Forced : Нет

Меню
00:00:00.000 : en:00:00:00.000
00:04:04.661 : en:00:04:04.661
00:08:21.543 : en:00:08:21.543
00:13:32.687 : en:00:13:32.687
00:18:28.316 : en:00:18:28.316
00:24:07.237 : en:00:24:07.237
00:29:21.259 : en:00:29:21.259
00:36:15.548 : en:00:36:15.548
00:42:20.663 : en:00:42:20.663
00:48:22.441 : en:00:48:22.441
00:55:12.184 : en:00:55:12.184
01:01:09.666 : en:01:01:09.666
01:08:32.483 : en:01:08:32.483
01:16:23.329 : en:01:16:23.329
01:24:45.330 : en:01:24:45.330
01:29:06.550 : en:01:29:06.550
01:37:52.909 : en:01:37:52.909
01:44:26.343 : en:01:44:26.343
01:48:03.727 : en:01:48:03.727
01:54:01.209 : en:01:54:01.209
pb.wtf



Скачать Джейсон Борн через торрент https://b.radikal.ru/b17/1806/08/b6faa4bd2ad5.png Скачать, смотреть онлайн Джейсон Борн бесплантно в хорошем качестве Описание: Мир на грани катастрофы, а значит пришло время ему вернуться. Неаполь, Мюнхен, Нью-Йорк - его имя знают повсюду. Элитный ... 10 10 6
Info! Золотая раздача, скачанное не засчитывается.
Торрент: Зарегистрирован [2018-06-02 05:40] · скачан: 28 раз
Статус: √ проверено
Размер: 75.77 GB
Как cкачать? Как скачать Джейсон Борн через торрент | UTorrent

28-11-2019 20:33  

Отключить вcю реклaмy на сайте

    Дорогой пользователь! Огромная просьба, поблагодарите релизера, оцените раздачу и оставьте свои комментарий, если Вы скачали Джейсон Борн через торрент бесплатно!
    Комментировать посты могут только пользователи прошедшие не сложную регистрацию
    Показать сообщения:    

    Джейсон Борн через торрент
    Скачать бесплатно Джейсон Борн
    Джейсон Борн скачать торрент
    Джейсон Борн смотреть онлайн
    Cкачать фильм Джейсон Борн бесплатно
    Джейсон Борн скачать торрент в хорошем качестве
    Джейсон Борн смотреть онлайн бесплатно в хорошем качестве


    Вы не можете начинать темы
    Вы не можете отвечать на сообщения
    Вы не можете редактировать свои сообщения
    Вы не можете удалять свои сообщения
    Вы не можете голосовать в опросах
    Вы не можете прикреплять файлы к сообщениям
    Вы можете скачивать файлы