Всегда рабочее зеркало без VPN и Proxy просто перед .vidak.icu напиши любое слово или цифру, Пример http://wd4h.vidak.icu

MVO

2 сезон

2 сезон

1

1 сезон

iTunes

2 сезон

13

1 сезон

Распродажа

pack

Рекомендуем

Пиратка

30

ВАЖНО

RePack

MK11

RePack

jed

RePack

fifa19

RePack

RDR2

RePack

NEED FOR SPEED™ PAYBACK

Кинопоиск HD

6 сезон

 Острые козырьки 6 сезон

Все сериалы

все сериалы на PB.wtf

RePack

FAR CRY 5

Anonymous, нам критически не хватает 5601 руб. на оплату серверов и переферии за Апрель, помоги нам пожалуйста, вся надежда только на тебя. В благодарность мы отключим тебе всю рекламу на сайте!

×
  
Magnet ссылка

Зачётный препод / Fack ju Göhte (Бора Дагтекин) [2013 г., комедия, BDRip 1080p, HEVC (10Bit), Дубляж | Лицензия] pb.wtf

Зачётный препод через торрент pb.wtf

Размер: 8.11 GB | Добавлен: 3 года 11 мес. назад | Торрент скачан:91 раз
Смотреть онлайн Зачётный препод | Скачать    Ребята, помогите собрать деньги на оплату серверов!!!

02-06-2018 15:15 Зачётный препод Скачать торрент  

Зачётный препод / Fack ju Göhte
Год выпуска: 2013
Страна: Германия
Жанр: комедия
Продолжительность: 01:57:08
Перевод: Дубляж | Лицензия
Субтитры: Русские

Режиссер: Бора Дагтекин

rating

В ролях: Элиас ЭмБарек, Каролина Херфурт, Катя Риман, Яна Палласке, Алвара Хёфельс

Описание: Незадачливый грабитель банков Зеки Мюллер после тринадцати месяцев отсидки выходит из тюрьмы. Он отправляется на поиски награбленной добычи, которая была спрятана на стройке. Вместе с подружкой они думали, что там идёт всего-навсего прокладка труб. Каково же удивление горе-грабителя, когда он обнаруживает на нужном месте новенький школьный спортзал!
Доп. информация: -
H.265/HEVC (High Efficiency Video Coding) - это новый стандарт кодирования видео.
- Стандарт H.265/HEVC является логическим продолжением стандарта
H.264/AVC (Advanced Video Coding), и характеризуется более эффективными
алгоритмами сжатия, а также поддержкой высокого разрешения вплоть до 8K UHD
(8192x4320). Первая версия стандарта H.265 была опубликована в начале 2013 года.
- Рипы в фомате HEVC поддерживается не всеми аппаратными проигрывателями.
- Для корректного воспроизведения может потребоваться обновление ПО.
- Владельцам несовместимого железа просьба не беспокоить,
есть альтернативные релизы.
Качество: BDRip 1080p
Формат: MKV
Видео кодек: H.265
Аудио кодек: AC3
Видео: 1920х816, ~8817 kbps
Аудио#1: AC3, 6 ch, 448 kbps (Дубляж)
Аудио#2: AC3, 6 ch, 640 kbps (Оригинал, немецкий)
Релиз от: Druidblack
General

Unique ID : 261958991904870554050016941455208752452 (0xC5137777C1FC7160E3F40CA2897A2544)

Complete name : \192.168.1.43фильмыЗачётный препод (2013) BDRip 1080p [HEVC] 10Bit_Druidblack.mkv

Format : Matroska

Format version : Version 4 / Version 2

File size : 8.11 GiB

Duration : 1 h 57 min

Overall bit rate : 9 907 kb/s

Encoded date : UTC 2018-05-29 18:42:23

Writing application : mkvmerge v23.0.0 ('The Bride Said No') 64-bit

Writing library : libebml v1.3.6 + libmatroska v1.4.9

Cover : Yes

Attachments : cover.jpg

Encoding Gui : Hybrid 2018.04.08.1

Video

ID : 1

Format : HEVC

Format/Info : High Efficiency Video Coding

Format profile : Main 10@L5.1@High

Codec ID : V_MPEGH/ISO/HEVC

Duration : 1 h 57 min

Bit rate : 8 817 kb/s

Width : 1 920 pixels

Height : 816 pixels

Display aspect ratio : 2.35:1

Frame rate mode : Constant

Frame rate : 24.000 FPS

Color space : YUV

Chroma subsampling : 4:2:0 (Type 0)

Bit depth : 10 bits

Bits/(Pixel*Frame) : 0.234

Stream size : 7.21 GiB (89%)

Writing library : x265 2.7+25-e1ed4d609b52:[Windows][GCC 7.3.0][64 bit] 10bit

Encoding settings : cpuid=1049087 / frame-threads=4 / numa-pools=12 / wpp / no-pmode / no-pme / no-psnr / no-ssim / log-level=2 / input-csp=1 / input-res=1920x816 / interlace=0 / total-frames=0 / level-idc=51 / high-tier=1 / uhd-bd=0 / ref=5 / no-allow-non-conformance / no-repeat-headers / annexb / no-aud / no-hrd / info / hash=0 / no-temporal-layers / open-gop / min-keyint=23 / keyint=240 / gop-lookahead=0 / bframes=8 / b-adapt=2 / b-pyramid / bframe-bias=0 / rc-lookahead=40 / lookahead-slices=5 / scenecut=40 / radl=0 / no-intra-refresh / ctu=64 / min-cu-size=8 / rect / no-amp / max-tu-size=32 / tu-inter-depth=3 / tu-intra-depth=3 / limit-tu=4 / rdoq-level=2 / dynamic-rd=0.00 / no-ssim-rd / signhide / no-tskip / nr-intra=0 / nr-inter=0 / no-constrained-intra / no-strong-intra-smoothing / max-merge=3 / limit-refs=3 / limit-modes / me=3 / subme=7 / merange=57 / temporal-mvp / weightp / weightb / no-analyze-src-pics / deblock=-3:-3 / no-sao / no-sao-non-deblock / rd=4 / no-early-skip / rskip / no-fast-intra / no-tskip-fast / no-cu-lossless / no-b-intra / no-splitrd-skip / rdpenalty=0 / psy-rd=2.00 / psy-rdoq=1.00 / no-rd-refine / no-lossless / cbqpoffs=0 / crqpoffs=0 / rc=crf / crf=18.0 / qcomp=0.60 / qpstep=4 / stats-write=0 / stats-read=0 / vbv-maxrate=160000 / vbv-bufsize=160000 / vbv-init=0.9 / crf-max=0.0 / crf-min=0.0 / ipratio=1.40 / pbratio=1.30 / aq-mode=1 / aq-strength=1.00 / cutree / zone-count=0 / no-strict-cbr / qg-size=32 / no-rc-grain / qpmax=69 / qpmin=0 / no-const-vbv / sar=1 / overscan=0 / videoformat=5 / range=0 / colorprim=2 / transfer=1 / colormatrix=1 / chromaloc=1 / chromaloc-top=0 / chromaloc-bottom=0 / display-window=0 / max-cll=0,0 / min-luma=0 / max-luma=1023 / log2-max-poc-lsb=8 / vui-timing-info / vui-hrd-info / slices=1 / no-opt-qp-pps / no-opt-ref-list-length-pps / no-multi-pass-opt-rps / scenecut-bias=0.05 / no-opt-cu-delta-qp / no-aq-motion / no-hdr / no-hdr-opt / no-dhdr10-opt / no-idr-recovery-sei / analysis-reuse-level=5 / scale-factor=0 / refine-intra=0 / refine-inter=0 / refine-mv=0 / no-limit-sao / ctu-info=0 / no-lowpass-dct / refine-mv-type=0 / copy-pic=1 / max-ausize-factor=1.0 / no-dynamic-refine / no-single-sei

Default : Yes

Forced : Yes

Color range : Limited

Transfer characteristics : BT.709

Matrix coefficients : BT.709

Audio #1

ID : 2

Format : AC-3

Format/Info : Audio Coding 3

Codec ID : A_AC3

Duration : 1 h 57 min

Bit rate mode : Constant

Bit rate : 448 kb/s

Channel(s) : 6 channels

Channel positions : Front: L C R, Side: L R, LFE

Sampling rate : 48.0 kHz

Frame rate : 31.250 FPS (1536 SPF)

Bit depth : 16 bits

Compression mode : Lossy

Stream size : 375 MiB (5%)

Title : DUB 5.1

Language : Russian

Service kind : Complete Main

Default : Yes

Forced : No

Audio #2

ID : 3

Format : AC-3

Format/Info : Audio Coding 3

Codec ID : A_AC3

Duration : 1 h 57 min

Bit rate mode : Constant

Bit rate : 640 kb/s

Channel(s) : 6 channels

Channel positions : Front: L C R, Side: L R, LFE

Sampling rate : 48.0 kHz

Frame rate : 31.250 FPS (1536 SPF)

Bit depth : 16 bits

Compression mode : Lossy

Stream size : 536 MiB (6%)

Title : German

Language : German

Service kind : Complete Main

Default : No

Forced : No

Text

ID : 4

Format : UTF-8

Codec ID : S_TEXT/UTF8

Codec ID/Info : UTF-8 Plain Text

Duration : 1 h 48 min

Bit rate : 111 b/s

Count of elements : 1312

Stream size : 88.3 KiB (0%)

Language : Russian

Default : No

Forced : No

Menu

00:00:00.000 : en:00:00:00.000

00:05:23.125 : en:00:05:23.125

00:11:24.625 : en:00:11:24.625

00:17:38.165 : en:00:17:38.165

00:21:14.915 : en:00:21:14.915

00:26:57.790 : en:00:26:57.790

00:33:51.165 : en:00:33:51.165

00:39:11.666 : en:00:39:11.666

00:43:54.708 : en:00:43:54.708

00:49:57.083 : en:00:49:57.083

00:55:18.875 : en:00:55:18.875

01:02:29.166 : en:01:02:29.166

01:08:21.875 : en:01:08:21.875

01:13:31.041 : en:01:13:31.041

01:17:51.291 : en:01:17:51.291

01:23:37.166 : en:01:23:37.166

01:29:43.000 : en:01:29:43.000

01:34:39.875 : en:01:34:39.875

01:40:45.416 : en:01:40:45.416

01:45:19.750 : en:01:45:19.750

01:48:24.832 : en:01:48:24.832

pb.wtf



Скачать Зачётный препод через торрент https://c.radikal.ru/c39/1806/f1/c336d371e605.jpg Скачать, смотреть онлайн Зачётный препод бесплантно в хорошем качестве Описание: Незадачливый грабитель банков Зеки Мюллер после тринадцати месяцев отсидки выходит из тюрьмы. Он отправляется на поиски ... 5 10 1
Info! Золотая раздача, скачанное не засчитывается.
Торрент: Зарегистрирован [2018-06-02 15:15] · скачан: 91 раз
Статус: √ проверено
Размер: 8.11 GB
Как cкачать? Как скачать Зачётный препод через торрент | UTorrent

28-11-2019 20:33  

Отключить всю рекламу на сайте

    Дорогой пользователь! Огромная просьба, поблагодарите релизера, оцените раздачу и оставьте свои комментарий, если Вы скачали Зачётный препод через торрент бесплатно!
    Комментировать посты могут только пользователи прошедшие не сложную регистрацию
    Показать сообщения:    

    Зачётный препод через торрент
    Скачать бесплатно Зачётный препод
    Зачётный препод скачать торрент
    Зачётный препод смотреть онлайн
    Cкачать фильм Зачётный препод бесплатно
    Зачётный препод скачать торрент в хорошем качестве
    Зачётный препод смотреть онлайн бесплатно в хорошем качестве


    Вы не можете начинать темы
    Вы не можете отвечать на сообщения
    Вы не можете редактировать свои сообщения
    Вы не можете удалять свои сообщения
    Вы не можете голосовать в опросах
    Вы не можете прикреплять файлы к сообщениям
    Вы можете скачивать файлы