Всегда рабочее зеркало без VPN и Proxy просто перед .vidak.icu напиши любое слово или цифру, Пример http://2u5y.vidak.icu

MVO

2 сезон

1 сезон

1

1 сезон

iTunes

2 сезон

13

1 сезон

Deluxe

pack

Рекомендуем

Пиратка

30

ВАЖНО

RePack

MK11

RePack

jed

RePack

fifa19

RePack

RDR2

RePack

NEED FOR SPEED™ PAYBACK

Кинопоиск HD

6 сезон

 Острые козырьки 6 сезон

Все сериалы

все сериалы на PB.wtf

RePack

FAR CRY 5

Anonymous, нам критически не хватает 5601 руб. на оплату серверов и переферии за Апрель, помоги нам пожалуйста, вся надежда только на тебя. В благодарность мы отключим тебе всю рекламу на сайте!

×
  
Magnet ссылка

Зачётный препод 3 / Fack ju Göhte 3 (Бора Дагтекин) [2017 г., комедия, BDRip 1080p, HEVC (10Bit), Дубляж iTunes] pb.wtf

Зачётный препод 3 через торрент pb.wtf

Размер: 5.65 GB | Добавлен: 3 года 11 мес. назад | Торрент скачан:261 раз
Смотреть онлайн Зачётный препод 3 | Скачать    Ребята, помогите собрать деньги на оплату серверов!!!

02-06-2018 18:18 Зачётный препод 3 Скачать торрент  

Зачётный препод 3 / Fack ju Göhte 3
Год выпуска: 2017
Страна: Германия
Жанр: комедия
Продолжительность: 01:59:32
Перевод: Дубляж (iTunes)
Субтитры: Отсутствуют

Режиссер: Бора Дагтекин

rating

В ролях: Элиас ЭмБарек, Катя Риман, Йелла Хаазе, Сандра Хюллер, Макс фон Гробен, Уши Глас, Гизем Эмре, Арам Арами, Лукас Райбер, Руна Грайнер

Описание: Классному руководителю Зэку Мюллеру достался класс с самыми трудными подростками в Германии. Не проходит и дня, чтобы эти молодые отпрыски чего-нибудь не отмочили. Если бы не криминальное прошлое Зэка, ему бы ни за что с ними не управиться. Но этот год обещает быть особенным.
Доп. информация: -
H.265/HEVC (High Efficiency Video Coding) - это новый стандарт кодирования видео.
- Стандарт H.265/HEVC является логическим продолжением стандарта
H.264/AVC (Advanced Video Coding), и характеризуется более эффективными
алгоритмами сжатия, а также поддержкой высокого разрешения вплоть до 8K UHD
(8192x4320). Первая версия стандарта H.265 была опубликована в начале 2013 года.
- Рипы в фомате HEVC поддерживается не всеми аппаратными проигрывателями.
- Для корректного воспроизведения может потребоваться обновление ПО.
- Владельцам несовместимого железа просьба не беспокоить,
есть альтернативные релизы.
Качество: BDRip 1080p
Формат: MKV
Видео кодек: H.265
Аудио кодек: AC3
Видео: 1920х804, ~6380 kbps
Аудио: AC3, 6 ch, 384 kbps (Дубляж)
Релиз от: Druidblack
Общее
Уникальный идентификатор : 8270206190533384423346879066263494992 (0x638C8A578213F164C552FD3AFE3A150)
Полное имя : J:\ФИЛЬМЫ\Зачётный препод 3 (2017) BDRip 1080p [HEVC] 10Bit_Druidblack.mkv
Формат : Matroska
Версия формата : Version 4 / Version 2
Размер файла : 5,65 Гбайт
Продолжительность : 1 ч. 59 м.
Общий поток : 6766 Кбит/сек
Дата кодирования : UTC 2018-05-27 05:47:52
Программа кодирования : mkvmerge v23.0.0 ('The Bride Said No') 64-bit
Библиотека кодирования : libebml v1.3.6 + libmatroska v1.4.9
Обложка : Yes
Attachments : cover.jpg
Encoding Gui : Hybrid 2018.04.08.1

Видео
Идентификатор : 1
Формат : HEVC
Формат/Информация : High Efficiency Video Coding
Профиль формата : Main 10@L5.1@High
Идентификатор кодека : V_MPEGH/ISO/HEVC
Продолжительность : 1 ч. 59 м.
Битрейт : 6380 Кбит/сек
Ширина : 1920 пикселей
Высота : 804 пикселя
Соотношение сторон : 2,40:1
Режим частоты кадров : Постоянный
Частота кадров : 24,000 кадра/сек
Цветовое пространство : YUV
Субдискретизация насыщенности : 4:2:0 (Type 0)
Битовая глубина : 10 бит
Бит/(Пиксели*Кадры) : 0.172
Размер потока : 5,33 Гбайт (94%)
Библиотека кодирования : x265 2.7+25-e1ed4d609b52:[Windows][GCC 7.3.0][64 bit] 10bit
Настройки программы : cpuid=1049087 / frame-threads=4 / numa-pools=12 / wpp / no-pmode / no-pme / no-psnr / no-ssim / log-level=2 / input-csp=1 / input-res=1920x804 / interlace=0 / total-frames=0 / level-idc=51 / high-tier=1 / uhd-bd=0 / ref=5 / no-allow-non-conformance / no-repeat-headers / annexb / no-aud / no-hrd / info / hash=0 / no-temporal-layers / open-gop / min-keyint=23 / keyint=240 / gop-lookahead=0 / bframes=8 / b-adapt=2 / b-pyramid / bframe-bias=0 / rc-lookahead=40 / lookahead-slices=5 / scenecut=40 / radl=0 / no-intra-refresh / ctu=64 / min-cu-size=8 / rect / no-amp / max-tu-size=32 / tu-inter-depth=3 / tu-intra-depth=3 / limit-tu=4 / rdoq-level=2 / dynamic-rd=0.00 / no-ssim-rd / signhide / no-tskip / nr-intra=0 / nr-inter=0 / no-constrained-intra / no-strong-intra-smoothing / max-merge=3 / limit-refs=3 / limit-modes / me=3 / subme=7 / merange=57 / temporal-mvp / weightp / weightb / no-analyze-src-pics / deblock=-3:-3 / no-sao / no-sao-non-deblock / rd=4 / no-early-skip / rskip / no-fast-intra / no-tskip-fast / no-cu-lossless / no-b-intra / no-splitrd-skip / rdpenalty=0 / psy-rd=2.00 / psy-rdoq=1.00 / no-rd-refine / no-lossless / cbqpoffs=0 / crqpoffs=0 / rc=crf / crf=18.0 / qcomp=0.60 / qpstep=4 / stats-write=0 / stats-read=0 / vbv-maxrate=160000 / vbv-bufsize=160000 / vbv-init=0.9 / crf-max=0.0 / crf-min=0.0 / ipratio=1.40 / pbratio=1.30 / aq-mode=1 / aq-strength=1.00 / cutree / zone-count=0 / no-strict-cbr / qg-size=32 / no-rc-grain / qpmax=69 / qpmin=0 / no-const-vbv / sar=1 / overscan=0 / videoformat=5 / range=0 / colorprim=2 / transfer=2 / colormatrix=1 / chromaloc=1 / chromaloc-top=0 / chromaloc-bottom=0 / display-window=0 / max-cll=0,0 / min-luma=0 / max-luma=1023 / log2-max-poc-lsb=8 / vui-timing-info / vui-hrd-info / slices=1 / no-opt-qp-pps / no-opt-ref-list-length-pps / no-multi-pass-opt-rps / scenecut-bias=0.05 / no-opt-cu-delta-qp / no-aq-motion / no-hdr / no-hdr-opt / no-dhdr10-opt / no-idr-recovery-sei / analysis-reuse-level=5 / scale-factor=0 / refine-intra=0 / refine-inter=0 / refine-mv=0 / no-limit-sao / ctu-info=0 / no-lowpass-dct / refine-mv-type=0 / copy-pic=1 / max-ausize-factor=1.0 / no-dynamic-refine / no-single-sei
Язык : German
Default : Да
Forced : Да
Цветовой диапазон : Limited
Коэффициенты матрицы : BT.709

Аудио
Идентификатор : 2
Формат : AC-3
Формат/Информация : Audio Coding 3
Идентификатор кодека : A_AC3
Продолжительность : 1 ч. 59 м.
Вид битрейта : Постоянный
Битрейт : 384 Кбит/сек
Каналы : 6 каналов
Расположение каналов : Front: L C R, Side: L R, LFE
Частота : 48,0 КГц
Частота кадров : 31,250 кадров/сек (1536 SPF)
Битовая глубина : 16 бит
Метод сжатия : С потерями
Размер потока : 328 Мбайт (6%)
Заголовок : iTunes
Язык : Russian
ServiceKind/String : Complete Main
Default : Да
Forced : Нет

Меню
00:00:00.000 : en:00:00:00.000
00:06:36.708 : en:00:06:36.708
00:13:36.208 : en:00:13:36.208
00:20:23.500 : en:00:20:23.500
00:26:20.625 : en:00:26:20.625
00:34:28.083 : en:00:34:28.083
00:41:55.042 : en:00:41:55.042
00:48:43.333 : en:00:48:43.333
00:53:18.625 : en:00:53:18.625
00:56:49.083 : en:00:56:49.083
01:03:32.417 : en:01:03:32.417
01:06:54.417 : en:01:06:54.417
01:15:22.208 : en:01:15:22.208
01:22:21.042 : en:01:22:21.042
01:28:53.750 : en:01:28:53.750
01:35:47.458 : en:01:35:47.458
01:41:42.292 : en:01:41:42.292
01:49:58.750 : en:01:49:58.750

pb.wtf



Скачать Зачётный препод 3 через торрент https://c.radikal.ru/c38/1806/cc/a7a6956ce042.jpg Скачать, смотреть онлайн Зачётный препод 3 бесплантно в хорошем качестве Описание: Классному руководителю Зэку Мюллеру достался класс с самыми трудными подростками в Германии. Не проходит и дня, чтобы эти молодые ... 10 10 10
Info! Золотая раздача, скачанное не засчитывается.
Торрент: Зарегистрирован [2018-06-02 18:18] · скачан: 261 раз
Статус: √ проверено
Размер: 5.65 GB
Как cкачать? Как скачать Зачётный препод 3 через торрент | UTorrent

28-11-2019 20:33  

Отключить всю рекламу на сайте

    Дорогой пользователь! Огромная просьба, поблагодарите релизера, оцените раздачу и оставьте свои комментарий, если Вы скачали Зачётный препод 3 через торрент бесплатно!
    Комментировать посты могут только пользователи прошедшие не сложную регистрацию
    Показать сообщения:    

    Зачётный препод 3 через торрент
    Скачать бесплатно Зачётный препод 3
    Зачётный препод 3 скачать торрент
    Зачётный препод 3 смотреть онлайн
    Cкачать фильм Зачётный препод 3 бесплатно
    Зачётный препод 3 скачать торрент в хорошем качестве
    Зачётный препод 3 смотреть онлайн бесплатно в хорошем качестве


    Вы не можете начинать темы
    Вы не можете отвечать на сообщения
    Вы не можете редактировать свои сообщения
    Вы не можете удалять свои сообщения
    Вы не можете голосовать в опросах
    Вы не можете прикреплять файлы к сообщениям
    Вы можете скачивать файлы