новый адрес
Ссылка на приватное зеркало всего за 1$. Внимание количество ограничено!!!

iTunes

1+1

iTunes

мы

iTunes

1

iTunes

Чернобыль

iTunes

Ральф против интернета

Лицензия

ПШазам

Лицензия

Оно 2

Лицензия

30
pack

Вам бонус

ВАЖНО

!!Акция!!

Alien_RageХит недели

RePack

Resident Evil 21

ИГРА 18+

pack

RePack

jed

!!Акция!!

Alien_Rage

RePack

fifa19

RePack

Assassins Creed: Odyssey

RePack

NEED FOR SPEED™ PAYBACK

3 сезон

9 сезон

Бесстыжие 9 сезон

Все сериалы

все сериалы на PB.wtf

RePack

FAR CRY 5
Ребята, катастрофически не хватает 1900р. для оплаты серверов за Октябрь (всвязи с блокировками трафик упал в 3 раза), 1-2р., выручайте.
  

Айна (Алты Карлиев, Владимир Иванов) [1960, СССР, драма, VHSRip от AVP Studio] pb.wtf

Айна через торрент pb.wtf

Размер: 1.09 GB | Добавлен: 1 год 5 мес. назад | Торрент скачан:10 раз
Скачать  

03-06-2018 08:57 Айна Скачать торрент  

Айна
Страна: СССР
Производство: Туркменфильм

Жанр: драма
Год выпуска: 1960
Продолжительность: 01:17:03

Перевод: Не требуется
Cубтитры: нет
Оригинальная аудиодорожка: русский

Режиссер: Алты Карлиев, Владимир Иванов

В ролях:
Антонина Рустамова, Алты Карлиев, Артык Джаллыев, Кулькиши Кульмурадов, Клыч Бердыев, Сарры Каррыев, А. Мамилиев, Зоя Степанова, Базар Аманов, Назар Бекмиев...
Об актёрах подробней

Описание:
На экране Туркмения конца двадцатых годов, периода возникновения первых колхозов. Батрачка Айна (Антонина Рустамова) живёт в доме кулака Эсен-бая. Девушка горячо интересуется всем новым, что происходит в ауле. Но она очень удивилась, когда Эсен-бай посоветовал ей вступить в колхоз и подружиться с комсомольцами. Однажды по дороге в район на Айну и её новых друзей – учительницу Валю и комсомольского вожака Мялика – нападают басмачи. Но подоспевший коммунист Тахыров (Алты Карлиев) спасает их от смерти. В этот день Айна вступает в комсомол.

Исходник: VHS
Качество видео: VHSRip
Формат видео: AVI

Видео: 704x528 (4:3), 25,000 кадров/сек, XviD ~ 1823 kbps avg, 0.196 bit/pixel
Аудио: 48 kHz, Dolby Digital AC3 2.0, 192 kbps

Раздача от:
Общее
Полное имя : Ayna.1960.VHSRip_[New-team]_by_AVP_Studio.avi
Формат : AVI
Формат/Информация : Audio Video Interleave
Размер файла : 1,09 Гбайт
Продолжительность : 1 ч. 17 м.
Общий поток : 2025 Кбит/сек
Программа кодирования : VirtualDubMod 1.5.10.3 | www.virtualdub-fr.org || (build 2550/release)
Библиотека кодирования : VirtualDubMod build 2550/release

Видео
Идентификатор : 0
Формат : MPEG-4 Visual
Профиль формата : Advanced Simple@L5
Настройки формата : BVOP1 / Custom Matrix
Параметр BVOP формата : 1
Параметр QPel формата : Нет
Параметр GMC формата : Без точки перехода
Параметр матрицы формата : Выборочная
Идентификатор кодека : XVID
Идентификатор кодека/Подсказка : XviD
Продолжительность : 1 ч. 17 м.
Битрейт : 1823 Кбит/сек
Ширина : 704 пикселя
Высота : 528 пикселей
Соотношение сторон : 4:3
Частота кадров : 25,000 кадров/сек
Цветовое пространство : YUV
Субдискретизация насыщенности : 4:2:0
Битовая глубина : 8 бит
Тип развёртки : Прогрессивная
Метод сжатия : С потерями
Бит/(Пиксели*Кадры) : 0.196
Размер потока : 1005 Мбайт (90%)
Библиотека кодирования : XviD 73

Аудио
Идентификатор : 1
Формат : AC-3
Формат/Информация : Audio Coding 3
Идентификатор кодека : 2000
Продолжительность : 1 ч. 17 м.
Вид битрейта : Постоянный
Битрейт : 192 Кбит/сек
Каналы : 2 канала
Расположение каналов : Front: L R
Частота : 48,0 КГц
Частота кадров : 31,250 кадров/сек (1536 SPF)
Битовая глубина : 16 бит
Метод сжатия : С потерями
Размер потока : 106 Мбайт (9%)
Выравнивание : Разделение по промежуткам
Продолжительность промежутка : 40 мс. (1,00 видеокадр)
Время предзагрузки промежутка : 500 мс
pb.wtf



Скачать Айна через торрент http://picplus.ru/img/1805/29/bd6cec69.png Скачать фильм Айна через торрент бесплантно в хорошем качестве Описание:На экране Туркмения конца двадцатых годов, периода возникновения первых колхозов. Батрачка Айна (Антонина Рустамова) живёт в доме ... 10 10 1
Info! Золотая раздача, скачанное не засчитывается.
Торрент: Зарегистрирован [2018-06-03 08:57] · скачан: 10 раз
Статус: √ проверено
Размер: 1.09 GB
Как cкачать? Как скачать Айна через торрент | qTorrent

% Раздел Тема Автор DL S | L
Иностранные мультфильмы [ 1.37 GB ] Тайна красной планеты / Mars Needs Moms [2011 мультфильм HDRip лицензия] Lil Badun Скачать
1 | 0
Фильмы до 2000 г. [ 1.36 GB ] Черепашки-ниндзя 2: Тайна изумрудного зелья / Teenage Mutant Ninja Turtles II: The Secret of the Ooze [1991 HDRip] MVO stalonе Скачать
2 | 0
Наши сериалы [ 5.27 GB ] Тайная стража [2005 . DVDRip] Инсайдер Скачать
1 | 0
Зарубежные Мультфильмы (DVD) [ 3.72 GB ] Принцесса лебедь 3: Тайна заколдованного королевства / The Swan Princess: The Mystery of the Enchanted Kingdom [1998 мультфильм DVD5 лицензия] Onector07 Скачать
1 | 0
Научно-популярные фильмы [ 12.83 GB ] Запретные темы истории Загадки Древнего Египта Неизвестная Мексика Перу и Боливия Ковчег завета Восточная коллекция Земля обетованная Тайна Йонагуни Невозможный Нан-Мадол [2003-2011 Документальный DVDRip] Stargate_Universe Скачать
1 | 0
Зарубежные Мультфильмы (DVD) [ 7.46 GB ] Тинтина: Тайна Единорога / The Adventures of Tintin [2011 мультфильм DVD9] R5 voovaz Скачать
1 | 0
Фильмы 2012 [ 1.74 GB ] Тайна Эдвина Друда / The Mystery of Edwin Drood [2012 HDTVRip] -=Cherry=- Скачать
1 | 0
    Дорогой пользователь! Огромная просьба, поблагодарите релизера, оцените раздачу и оставьте свои комментарий, если Вы скачали Айна через торрент бесплатно! Внесите свою лепту в развитие PiratBit!
    Комментировать посты могут только пользователи прошедшие не сложную регистрацию
    Показать сообщения:    

    Айна через торрент
    Скачать бесплатно Айна
    Айна скачать торрент
    Айна смотреть онлайн
    Cкачать фильм Айна бесплатно
    Айна скачать торрент в хорошем качестве
    Айна смотреть онлайн бесплатно в хорошем качестве


    Вы не можете начинать темы
    Вы не можете отвечать на сообщения
    Вы не можете редактировать свои сообщения
    Вы не можете удалять свои сообщения
    Вы не можете голосовать в опросах
    Вы не можете прикреплять файлы к сообщениям
    Вы можете скачивать файлы