Ссылка на приватное зеркало нашего сайта всего за 1$. Внимание количество ограничено!!!

2 сезон

iTunes

1 сезон

1

2 сезон

2 сезон

iTunes

1 сезон

RePack

30

Ultimate

ВАЖНО

ИГРА 18+

pack

RePack

MK11
pack

Забери бонус

RePack

jed

!!Акция!!

Alien_Rage

RePack

fifa19

RePack

Assassins Creed: Odyssey

RePack

NEED FOR SPEED™ PAYBACK

4 сезон

9 сезон

Бесстыжие 9 сезон

Все сериалы

все сериалы на PB.wtf

RePack

FAR CRY 5
  

Наркоман Павлик / Сезон: 4 / Серии: 1-10 из 10 (Павел Радонцев) [2018, Комедия, короткометражный, WEB-DL 1080p] pb.wtf

Наркоман Павлик через торрент pb.wtf

Размер: 4.93 GB | Добавлен: 2 года 5 мес. назад | Торрент скачан:133 раза
Скачать  

04-06-2018 07:33 Наркоман Павлик Скачать торрент  

Наркоман ПавликГод выпуска: 2018
Страна: Россия
Жанр: Комедия, короткометражный
Продолжительность: ~00:15:00
Перевод: Не требуется
Субтитры: отсутствуют

Режиссер: Павел Радонцев

В ролях:

Павел Радонцев, Денис Гущин, Кирилл Демидов, Антон Батищев, Илья Сорокин, Андрей Савицкий, Регина Вожова, Иван Солдаткин, Ольга Лапушкина, Михаил Мартынов, Хамид Дышниев, Андрей Мирославский, Артём Веретенников, Николай Гусляров

Описание:

Короткометражный, юмористический сериал о приключениях Павлика, от участников проектов Comedy Club Samara Style, Comedy Club Saint-Petersburg. Сериал стремительно набирает популярность, фразы Павлика всё чаще встречаются на просторах рунета. "Здорова братиш!" - если вы слышали это и не знали откуда, смотрите. Очень угарная и ржачная тема!



Качество: WEB-DL 1080p
Формат: MKV

Видео: MPEG-4 AVC, ~ 5000 Кбит/с, 1920x1080
Аудио: AC3, 2 ch, 192 Кбит/с
скриншот   скриншот   скриншот   скриншот  

Общее
Уникальный идентификатор : 8772515990281568695725232340571994771 (0x699866E7B8856921B9718FFB3E73A93)
Полное имя : Павлик 4 сезон 1 серия.mkv
Формат : Matroska
Версия формата : Version 4 / Version 2
Размер файла : 667 Мбайт
Продолжительность : 17 м. 53 с.
Общий поток : 5209 Кбит/сек
Дата кодирования : UTC 2018-06-03 08:21:57
Программа кодирования : mkvmerge v23.0.0 ('The Bride Said No') 64-bit
Библиотека кодирования : libebml v1.3.6 + libmatroska v1.4.9
Attachments : poster.jpg

Видео
Идентификатор : 1
Формат : AVC
Формат/Информация : Advanced Video Codec
Профиль формата : Main@L5.1
Настройки формата : CABAC / 1 Ref Frames
Параметр CABAC формата : Да
Параметр RefFrames формата : 1 кадр
Идентификатор кодека : V_MPEG4/ISO/AVC
Продолжительность : 17 м. 53 с.
Битрейт : 5015 Кбит/сек
Ширина : 1920 пикселей
Высота : 1080 пикселей
Соотношение сторон : 16:9
Режим частоты кадров : Постоянный
Частота кадров : 25,000 кадров/сек
Цветовое пространство : YUV
Субдискретизация насыщенности : 4:2:0
Битовая глубина : 8 бит
Тип развёртки : Прогрессивная
Бит/(Пиксели*Кадры) : 0.097
Размер потока : 642 Мбайт (96%)
Default : Да
Forced : Нет

Аудио
Идентификатор : 2
Формат : AC-3
Формат/Информация : Audio Coding 3
Идентификатор кодека : A_AC3
Продолжительность : 17 м. 53 с.
Вид битрейта : Постоянный
Битрейт : 192 Кбит/сек
Каналы : 2 канала
Расположение каналов : Front: L R
Частота : 48,0 КГц
Частота кадров : 31,250 кадров/сек (1536 SPF)
Битовая глубина : 16 бит
Метод сжатия : С потерями
Размер потока : 24,6 Мбайт (4%)
Default : Да
Forced : Нет

pb.wtf



Скачать Наркоман Павлик через торрент http://pic1.kartinco.top/images/11/l5bbo.jpg Скачать фильм Наркоман Павлик через торрент бесплантно в хорошем качестве Описание: Короткометражный, юмористический сериал о приключениях Павлика, от участников проектов Comedy Club Samara Style, Comedy Club ... 9.1 10 10
Торрент: Зарегистрирован [2018-06-04 07:33] · скачан: 133 раз
Статус: √ проверено
Размер: 4.93 GB
Как cкачать? Как скачать Наркоман Павлик через торрент | qTorrent



Последний раз редактировалось: bober100 (2018-06-04 08:33), всего редактировалось 1 раз

28-11-2019 20:33  

Отключить всю рекламу на сайте

04-06-2018 09:03 Наркоман Павлик Скачать торрент  

спасибо ,супер комедия !!!) а кто из за названия не смотрит тот многое теряет ) сам из за названия смотреть не хотел )pb.wtf



    Дорогой пользователь! Огромная просьба, поблагодарите релизера, оцените раздачу и оставьте свои комментарий, если Вы скачали Наркоман Павлик через торрент бесплатно! Внесите свою лепту в развитие PiratBit!
    Комментировать посты могут только пользователи прошедшие не сложную регистрацию
    Показать сообщения:    

    Наркоман Павлик через торрент
    Скачать бесплатно Наркоман Павлик
    Наркоман Павлик скачать торрент
    Наркоман Павлик смотреть онлайн
    Cкачать фильм Наркоман Павлик бесплатно
    Наркоман Павлик скачать торрент в хорошем качестве
    Наркоман Павлик смотреть онлайн бесплатно в хорошем качестве


    Вы не можете начинать темы
    Вы не можете отвечать на сообщения
    Вы не можете редактировать свои сообщения
    Вы не можете удалять свои сообщения
    Вы не можете голосовать в опросах
    Вы не можете прикреплять файлы к сообщениям
    Вы можете скачивать файлы