Ссылка на приватное зеркало нашего сайта всего за 1$. Внимание количество ограничено!!!

2 сезон

iTunes

1 сезон

1

iTunes

iTunes

iTunes

1 сезон

RePack

30

ИГРА 18+

pack

ВАЖНО

!!Акция!!

Alien_RageХит недели

RePack

MK11
pack

Забери бонус

RePack

jed

!!Акция!!

Alien_Rage

RePack

fifa19

RePack

Assassins Creed: Odyssey

RePack

NEED FOR SPEED™ PAYBACK

4 сезон

9 сезон

Бесстыжие 9 сезон

Все сериалы

все сериалы на PB.wtf

RePack

FAR CRY 5
  

Практика / Сезон: 1 / Серии: 1-40 из 40 (Андрей Силкин) [2014, Медицина, драма, мелодрама, HDTVRip] pb.wtf

Практика через торрент pb.wtf

Раздают: 1 [ 0 KB/s ]
Размер: 24.51 GB | Добавлен: 2 года 4 мес. назад | Торрент скачан:19 раз
Скачать  

04-06-2018 09:53 Практика Скачать торрент  

ПрактикаГод выпуска: 2014
Страна: Россия
Жанр: Медицина, драма, мелодрама
Продолжительность: ~ 00:50:00
Субтитры: отсутствуют

Режиссер: Андрей Силкин



В ролях:

Ксения Лаврова-Глинка, Эльдар Лебедев, Пётр Баранчеев, Олег Шкловский, Иван Шибанов, Ольга Чудакова, Елизавета Лотова, Максим Костромыкин, Марина Барсукова, Валерий Новиков, Кира Бузникова, Анна Потебня, Тихон Бузников, Эдуард Айткулов, Юрий Калганов, Евгения Бордзиловская, Эльдар Джанибеков, Алла Фомичева, Николай Лунин (II), Алина Бабак, Наталья Тищенко, Даниил Богданов, Александр Хошабаев, Данил Дмитриев, Денис Баранов, Евгения Каверау, Дарья Хорошилова, Таисия Введенская, Алла Малкова, Ульяна Ворожейкина

Описание:

В жизни хирурга Евгении Королевой все было хорошо, пока однажды в больницу не прислали из Москвы нового заведующего Илью Соколова. Новый начальник сразу начинает наводить в отделении свои порядки, и Жене непросто найти с ним общий язык. Несмотря на конфликт, Женя и Илья вынуждены работать бок о бок, вместе спасая жизни пациентов. Они сами не замечают, как постепенно враждебность между ними сменяется симпатией, а потом и более глубокими чувствами.

Качество: HDTVRip
Формат: AVI

Видео: XviD, 1800 Кбит/с, 720x400
Аудио: AC3, 2 ch, 192 Кбит/с
скриншот   скриншот   скриншот   скриншот  

Общее
Полное имя : E:\Praktika.HDTVRip.GeneralFilm\Praktika.01.HDTVRip.GeneralFilm.avi
Формат : AVI
Формат/Информация : Audio Video Interleave
Размер файла : 702 Мбайт
Продолжительность : 49 м. 1 с.
Общий поток : 2002 Кбит/сек
Программа кодирования : VirtualDubMod 1.5.10.3 (build 2550/release)
Библиотека кодирования : VirtualDubMod build 2550/release

Видео
Идентификатор : 0
Формат : MPEG-4 Visual
Профиль формата : Advanced Simple@L5
Настройки формата : BVOP1 / Custom Matrix
Параметр BVOP формата : 1
Параметр QPel формата : Нет
Параметр GMC формата : Без точки перехода
Параметр матрицы формата : Выборочная
Идентификатор кодека : XVID
Идентификатор кодека/Подсказка : XviD
Продолжительность : 49 м. 1 с.
Битрейт : 1800 Кбит/сек
Ширина : 720 пикселей
Высота : 400 пикселей
Соотношение сторон : 16:9
Частота кадров : 25,000 кадров/сек
Цветовое пространство : YUV
Субдискретизация насыщенности : 4:2:0
Битовая глубина : 8 бит
Тип развёртки : Прогрессивная
Метод сжатия : С потерями
Бит/(Пиксели*Кадры) : 0.250
Размер потока : 631 Мбайт (90%)
Библиотека кодирования : XviD 73

Аудио
Идентификатор : 1
Формат : AC-3
Формат/Информация : Audio Coding 3
Идентификатор кодека : 2000
Продолжительность : 49 м. 1 с.
Вид битрейта : Постоянный
Битрейт : 192 Кбит/сек
Каналы : 2 канала
Расположение каналов : Front: L R
Частота : 48,0 КГц
Частота кадров : 31,250 кадров/сек (1536 SPF)
Битовая глубина : 16 бит
Метод сжатия : С потерями
Размер потока : 67,3 Мбайт (10%)
Выравнивание : Разделение по промежуткам
Продолжительность промежутка : 40 мс. (1,00 видеокадр)
Время предзагрузки промежутка : 500 мс.
ServiceKind/String : Complete Main

pb.wtf



Скачать Практика через торрент http://s017.radikal.ru/i434/1605/f2/fa511d2215e3.jpg Скачать фильм Практика через торрент бесплантно в хорошем качестве Описание: В жизни хирурга Евгении Королевой все было хорошо, пока однажды в больницу не прислали из Москвы нового заведующего Илью ... 10 10 4
Info! Серебряная раздача, засчитывается только 50% скачанного.
Торрент: Зарегистрирован [2018-06-04 09:53] · скачан: 19 раз
Статус: √ проверено
Размер: 24.51 GB
Как cкачать? Как скачать Практика через торрент | qTorrent

% Раздел Тема Автор DL S | L
Наши сериалы [ 82.05 GB ] Практика / Сезон: 1 / Серии: 1-40 из 40 [2014 Медицина HDTV 1080i] bober100 Скачать
1 | 0
Наши сериалы [ 29.38 GB ] Практика / Сезон: 1 / Серии: 1-40 из 40 [2014 Медицина HDTVRip-AVC] bober100 Скачать
1 | 0
Наши сериалы [ 5.26 GB ] Практика / Сезон: 2 / Серии: 1-8 из 40 [2018 Медицина SATRip] bober100 Скачать
1 | 0
Наши сериалы [ 24.61 GB ] Практика / Сезон: 2 / Серии: 1-40 из 40 [2018 WEBRip-AVC] aleksan55 Скачать
1 | 0
Наши сериалы [ 21.51 GB ] Практика / Сезон: 1 / Серии 1-40 из 40 [2014 Россия SATRip) GEKADOL Скачать
1 | 0

28-11-2019 20:33  

Отключить всю рекламу на сайте

    Дорогой пользователь! Огромная просьба, поблагодарите релизера, оцените раздачу и оставьте свои комментарий, если Вы скачали Практика через торрент бесплатно! Внесите свою лепту в развитие PiratBit!
    Комментировать посты могут только пользователи прошедшие не сложную регистрацию
    Показать сообщения:    

    Практика через торрент
    Скачать бесплатно Практика
    Практика скачать торрент
    Практика смотреть онлайн
    Cкачать фильм Практика бесплатно
    Практика скачать торрент в хорошем качестве
    Практика смотреть онлайн бесплатно в хорошем качестве


    Вы не можете начинать темы
    Вы не можете отвечать на сообщения
    Вы не можете редактировать свои сообщения
    Вы не можете удалять свои сообщения
    Вы не можете голосовать в опросах
    Вы не можете прикреплять файлы к сообщениям
    Вы можете скачивать файлы