Ссылка на приватное зеркало нашего сайта всего за 1$. Внимание количество ограничено!!!

2 сезон

iTunes

1 сезон

1

iTunes

iTunes

iTunes

1 сезон

RePack

30

ИГРА 18+

pack

ВАЖНО

!!Акция!!

Alien_RageХит недели

RePack

MK11
pack

Забери бонус

RePack

jed

!!Акция!!

Alien_Rage

RePack

fifa19

RePack

Assassins Creed: Odyssey

RePack

NEED FOR SPEED™ PAYBACK

4 сезон

9 сезон

Бесстыжие 9 сезон

Все сериалы

все сериалы на PB.wtf

RePack

FAR CRY 5
  

Славные пташки / PLOEY. You Never Fly Alone (Алекс Гарленд) [2018, мультфильм, WEB-DLRip-AVC] DUB [iTunes] - ExKinoRay pb.wtf

Славные пташки через торрент pb.wtf

Размер: 1.36 GB | Добавлен: 2 года 4 мес. назад | Торрент скачан:372 раза
Скачать  

05-06-2018 04:52 Славные пташки Скачать торрент  

Информация о фильме
Название: Славные пташки
Оригинальное название: PLOEY. You Never Fly Alone
Год выпуска: 2018
Жанр: Мультфильм, приключения, семейный, полнометражный
Режиссер: Аудни Аусгейрссон
В ролях: Джэми Орам, Харриет Перринг, Иэн Стюарт Робертсон, Ричард Уиллс-Коттон, Торунн Эрна Клаузен, Томас Арнольд, Кайзер Ахтар, Дебби Чейзен, Донья Кролл, Грэхэм Йорк

Описание: Приключения маленького птенца Рыжика и куропатки-отшельника Гайрона. Судьба сводит их вместе, когда Рыжик, отстав от стаи, не смог улететь на юг. Рыжик уговаривает чудаковатого и вечно брюзжащего Гайрона показать ему дорогу в Райскую долину — тайное место в горах, где птицы могут переждать суровую зиму. Путь туда таит немало опасностей. Постепенно неунывающему Рыжику удается растопить сердце старого отшельника. Вместе эта парочка становится друг для друга настоящей семьей, которой по силам свернуть горы.

rating

Выпущено: Исландия, Бельгия, GunHil, Cyborn
Перевод: Профессиональный (полное дублирование) | iTunes

Формат: MKV
Качество: WEB-DLRip-AVC
Видео: MPEG-4 AVC, 1024x428 (2.40:1), 24.000 fps, 1978 Kbps, 0,188 bit/pixel
Аудио: 48 kHz, AC3, 5.1 ch, ~384 kbps avg - Rus
General
Unique ID : 203690095296542057918017812587256355288 (0x993D490F5CEA3DA1B26313D5D82A19D8)
Complete name : D:\Slavnye.ptashky.2018.D.WEB-DLRip.AVC.ExKinoRay.mkv
Format : Matroska
Format version : Version 2
File size : 1.36 GiB
Duration : 1 h 22 min
Overall bit rate : 2 363 kb/s
Movie name : Славные пташки (2017) from ExKinoRay
Encoded date : UTC 2018-06-05 03:45:57
Writing application : mkvmerge v5.6.0 ('Kenya Kane') built on May 27 2012 16:44:04
Writing library : libebml v1.2.3 + libmatroska v1.3.0

Video
ID : 1
Format : AVC
Format/Info : Advanced Video Codec
Format profile : High@L4.1
Format settings, CABAC : Yes
Format settings, ReFrames : 10 frames
Codec ID : V_MPEG4/ISO/AVC
Duration : 1 h 22 min
Bit rate : 1 978 kb/s
Width : 1 024 pixels
Height : 428 pixels
Display aspect ratio : 2.40:1
Frame rate mode : Constant
Frame rate : 24.000 FPS
Color space : YUV
Chroma subsampling : 4:2:0
Bit depth : 8 bits
Scan type : Progressive
Bits/(Pixel*Frame) : 0.188
Stream size : 1.11 GiB (82%)
Title : Enigma
Writing library : x264 core 152 r2851 ba24899
Encoding settings : cabac=1 / ref=10 / deblock=1:-2:-2 / analyse=0x3:0x113 / me=umh / subme=10 / psy=1 / psy_rd=1.05:0.10 / mixed_ref=1 / me_range=32 / chroma_me=1 / trellis=2 / 8x8dct=1 / cqm=0 / deadzone=21,11 / fast_pskip=0 / chroma_qp_offset=-3 / threads=12 / lookahead_threads=3 / sliced_threads=0 / nr=0 / decimate=0 / interlaced=0 / bluray_compat=0 / constrained_intra=0 / bframes=12 / b_pyramid=2 / b_adapt=2 / b_bias=0 / direct=3 / weightb=1 / open_gop=0 / weightp=2 / keyint=240 / keyint_min=24 / scenecut=40 / intra_refresh=0 / rc_lookahead=40 / rc=2pass / mbtree=0 / bitrate=1978 / ratetol=1.0 / qcomp=0.60 / qpmin=0 / qpmax=51 / qpstep=4 / cplxblur=20.0 / qblur=0.5 / vbv_maxrate=50000 / vbv_bufsize=62500 / nal_hrd=none / filler=0 / ip_ratio=1.40 / pb_ratio=1.30 / aq=1:1.00
Default : Yes
Forced : No
Color range : Limited
Color primaries : BT.709
Transfer characteristics : BT.709
Matrix coefficients : BT.709

Audio
ID : 2
Format : AC-3
Format/Info : Audio Coding 3
Mode extension : CM (complete main)
Format settings, Endianness : Big
Codec ID : A_AC3
Duration : 1 h 22 min
Bit rate mode : Constant
Bit rate : 384 kb/s
Channel(s) : 6 channels
Channel positions : Front: L C R, Side: L R, LFE
Sampling rate : 48.0 kHz
Frame rate : 31.250 FPS (1536 spf)
Compression mode : Lossy
Stream size : 227 MiB (16%)
Title : iTunes
Language : Russian
Default : Yes
Forced : No

Menu
00:00:00.000 : en:Глава 1
00:05:37.666 : en:Глава 2
00:11:16.374 : en:Глава 3
00:17:59.457 : en:Глава 4
00:23:10.623 : en:Глава 5
00:28:29.248 : en:Глава 6
00:35:23.998 : en:Глава 7
00:41:04.039 : en:Глава 8
00:47:12.330 : en:Глава 9
00:54:50.705 : en:Глава 10
01:00:24.288 : en:Глава 11
01:05:02.246 : en:Глава 12
01:09:39.662 : en:Глава 13
01:14:56.578 : en:Глава 14
Релиз от:

Автор релиза: pb.wtf



Скачать Славные пташки через торрент http://lostpix.com/img/2018-06/05/ndfdnbkhlpahe25nsd7tdhg0q.jpg Скачать фильм Славные пташки через торрент бесплантно в хорошем качестве Описание: Приключения маленького птенца Рыжика и куропатки-отшельника Гайрона. Судьба сводит их вместе, когда Рыжик, отстав от стаи, не ... 10 10 8
Info! Золотая раздача, скачанное не засчитывается.
Торрент: Зарегистрирован [2018-06-05 04:52] · скачан: 372 раз
Статус: √ проверено
Размер: 1.36 GB
Как cкачать? Как скачать Славные пташки через торрент | qTorrent

28-11-2019 20:33  

Отключить всю рекламу на сайте

    Дорогой пользователь! Огромная просьба, поблагодарите релизера, оцените раздачу и оставьте свои комментарий, если Вы скачали Славные пташки через торрент бесплатно! Внесите свою лепту в развитие PiratBit!
    Комментировать посты могут только пользователи прошедшие не сложную регистрацию
    Показать сообщения:    

    Славные пташки через торрент
    Скачать бесплатно Славные пташки
    Славные пташки скачать торрент
    Славные пташки смотреть онлайн
    Cкачать фильм Славные пташки бесплатно
    Славные пташки скачать торрент в хорошем качестве
    Славные пташки смотреть онлайн бесплатно в хорошем качестве


    Вы не можете начинать темы
    Вы не можете отвечать на сообщения
    Вы не можете редактировать свои сообщения
    Вы не можете удалять свои сообщения
    Вы не можете голосовать в опросах
    Вы не можете прикреплять файлы к сообщениям
    Вы можете скачивать файлы