Ссылка на приватное зеркало всего за 1$. Внимание количество ограничено!!!

iTunes

iTunes

iTunes

1

iTunes

iTunes

iTunes

iTunes

iTunes

30
pack

$ от Little Big

ВАЖНО

!!Акция!!

Alien_RageХит недели

RePack

Resident Evil 21

ИГРА 18+

pack

RePack

jed

!!Акция!!

Alien_Rage

RePack

fifa19

RePack

Assassins Creed: Odyssey

RePack

NEED FOR SPEED™ PAYBACK

4 сезон

9 сезон

Бесстыжие 9 сезон

Все сериалы

все сериалы на PB.wtf

RePack

FAR CRY 5
  

Славные пташки / PLOEY. You Never Fly Alone (Алекс Гарленд) [2018, мультфильм, WEB-DLRip от R.G. Resident] DUB [iTunes] pb.wtf

Славные пташки через торрент pb.wtf

Размер: 1.37 GB | Добавлен: 2 года 1 мес. назад | Торрент скачан:439 раз
Скачать  

05-06-2018 07:07 Славные пташки Скачать торрент  

Славные пташки / PLOEY. You Never Fly Alone

Год выпуска: 2017
Страна: Исландия, Бельгия
Жанр: мультфильм

Продолжительность: 01:22:33
Перевод: Дублированный [iTunes]
Режиссер: Аудни Аусгейрссон
В ролях:

Джэми Орам (Ploey), Харриет Перринг (Ploeveria), Иэн Стюарт Робертсон (Giron), Ричард Уиллс-Коттон (Shadow), Торунн Эрна Клаузен (Mom & Bunting Bird), Томас Арнольд (Dad & Fox), Кайзер Ахтар (Boy), Дебби Чейзен (Cormorant & Swan), Донья Кролл (Sheep), Грэхэм Йорк (Mousy and Father), Камерон Фаррелли (Sloey), Кит Кляйнфельдт (Colonel Wing & DJ Redshank)
Описание:
Приключения маленького птенца Рыжика и куропатки-отшельника Гайрона. Судьба сводит их вместе, когда Рыжик, отстав от стаи, не смог улететь на юг. Рыжик уговаривает чудаковатого и вечно брюзжащего Гайрона показать ему дорогу в Райскую долину - тайное место в горах, где птицы могут переждать суровую зиму. Путь туда таит немало опасностей. Постепенно неунывающему Рыжику удается растопить сердце старого отшельника. Вместе эта парочка становится друг для друга настоящей семьей, которой по силам свернуть горы.
Рейтинг:
rating
Качество: WEB-DLRip
Формат: AVI
Видео: XviD, 720x304 (2.35:1), 1981 kbps, 24 fps, 0,377 bpp
Аудио: AC3 / 5.1 / 48 kHz / 384 kbps /

General
Complete name : C:\PLOEY.You.Never.Fly.Alone.2018.WEB-DLRip.R.G.Resident.avi
Format : AVI
Format/Info : Audio Video Interleave
File size : 1.37 GiB
Duration : 1 h 22 min
Overall bit rate : 2 375 kb/s
Writing application : VirtualDubModRus 1.5.10.2 (build 2542/release)
Writing library : VirtualDubMod build 2542/release

Video
ID : 0
Format : MPEG-4 Visual
Format profile : Advanced Simple@L5
Format settings, BVOP : 1
Format settings, QPel : No
Format settings, GMC : No warppoints
Format settings, Matrix : Custom
Codec ID : XVID
Codec ID/Hint : XviD
Duration : 1 h 22 min
Bit rate : 1 982 kb/s
Width : 720 pixels
Height : 304 pixels
Display aspect ratio : 2.35:1
Frame rate : 24.000 FPS
Color space : YUV
Chroma subsampling : 4:2:0
Bit depth : 8 bits
Scan type : Progressive
Compression mode : Lossy
Bits/(Pixel*Frame) : 0.377
Stream size : 1.14 GiB (83%)
Writing library : XviD 73

Audio
ID : 1
Format : AC-3
Format/Info : Audio Coding 3
Mode extension : CM (complete main)
Format settings, Endianness : Big
Codec ID : 2000
Duration : 1 h 22 min
Bit rate mode : Constant
Bit rate : 384 kb/s
Channel(s) : 6 channels
Channel positions : Front: L C R, Side: L R, LFE
Sampling rate : 48.0 kHz
Frame rate : 31.250 FPS (1536 spf)
Compression mode : Lossy
Stream size : 227 MiB (16%)
Alignment : Split accross interleaves
Interleave, duration : 42 ms (1.00 video frame)
Interleave, preload duration : 500 ms
pb.wtf



Скачать Славные пташки через торрент http://i77.fastpic.ru/big/2016/0417/a7/808a646271c761f7c7d87df3d366b3a7.png Скачать фильм Славные пташки через торрент бесплантно в хорошем качестве Описание: Приключения маленького птенца Рыжика и куропатки-отшельника Гайрона. Судьба сводит их вместе, когда Рыжик, отстав от стаи, не ... 9.9 10 12
Info! Золотая раздача, скачанное не засчитывается.
Торрент: Зарегистрирован [2018-06-05 07:07] · скачан: 439 раз
Статус: √ проверено
Размер: 1.37 GB
Как cкачать? Как скачать Славные пташки через торрент | qTorrent

% Раздел Тема Автор DL S | L
Иностранные мультфильмы [ 1.36 GB ] Славные пташки / PLOEY. You Never Fly Alone [2018 мультфильм WEB-DLRip-AVC] - ExKinoRay Enigma2010 Скачать
1 | 0
Зарубежные Мультфильмы (WEB-DL 720p, 1080p) [ 2.54 GB ] Славные пташки / PLOEY. You Never Fly Alone [2018 мультфильм WEB-DL 720p] bober100 Скачать
1 | 0
Иностранные мультфильмы [ 1.37 GB ] Славные пташки / PLOEY. You Never Fly Alone [2018 мультфильм WEB-DLRip] bober100 Скачать
1 | 0
Зарубежные Мультфильмы (WEB-DL 720p, 1080p) [ 2.83 GB ] Славные пташки / PLOEY. You Never Fly Alone [2018 мультфильм WEB-DL 1080p] bober100 Скачать
1 | 0

28-11-2019 20:33  

Отключить всю рекламу на сайте

    Дорогой пользователь! Огромная просьба, поблагодарите релизера, оцените раздачу и оставьте свои комментарий, если Вы скачали Славные пташки через торрент бесплатно! Внесите свою лепту в развитие PiratBit!
    Комментировать посты могут только пользователи прошедшие не сложную регистрацию
    Показать сообщения:    

    Славные пташки через торрент
    Скачать бесплатно Славные пташки
    Славные пташки скачать торрент
    Славные пташки смотреть онлайн
    Cкачать фильм Славные пташки бесплатно
    Славные пташки скачать торрент в хорошем качестве
    Славные пташки смотреть онлайн бесплатно в хорошем качестве


    Вы не можете начинать темы
    Вы не можете отвечать на сообщения
    Вы не можете редактировать свои сообщения
    Вы не можете удалять свои сообщения
    Вы не можете голосовать в опросах
    Вы не можете прикреплять файлы к сообщениям
    Вы можете скачивать файлы