Ссылка на приватное зеркало нашего сайта всего за 1$. Внимание количество ограничено!!!

2 сезон

iTunes

1 сезон

1

iTunes

iTunes

iTunes

1 сезон

RePack

30

ИГРА 18+

pack

ВАЖНО

!!Акция!!

Alien_RageХит недели

RePack

MK11
pack

Забери бонус

RePack

jed

!!Акция!!

Alien_Rage

RePack

fifa19

RePack

Assassins Creed: Odyssey

RePack

NEED FOR SPEED™ PAYBACK

4 сезон

9 сезон

Бесстыжие 9 сезон

Все сериалы

все сериалы на PB.wtf

RePack

FAR CRY 5
  

Практика / Сезон: 1 / Серии: 1-40 из 40 (Андрей Силкин) [2014, Медицина, драма, мелодрама, HDTV 1080i] pb.wtf

Практика через торрент pb.wtf

Размер: 82.05 GB | Добавлен: 2 года 4 мес. назад | Торрент скачан:2 раза
Скачать  

05-06-2018 15:13 Практика Скачать торрент  

Практика
Год выпуска: 2014
Страна: Россия
Жанр: Медицина, драма, мелодрама
Продолжительность: ~ 00:50:00
Субтитры: отсутствуют

Режиссер: Андрей Силкин



В ролях:

Ксения Лаврова-Глинка, Эльдар Лебедев, Пётр Баранчеев, Олег Шкловский, Иван Шибанов, Ольга Чудакова, Елизавета Лотова, Максим Костромыкин, Марина Барсукова, Валерий Новиков, Кира Бузникова, Анна Потебня, Тихон Бузников, Эдуард Айткулов, Юрий Калганов, Евгения Бордзиловская, Эльдар Джанибеков, Алла Фомичева, Николай Лунин (II), Алина Бабак, Наталья Тищенко, Даниил Богданов, Александр Хошабаев, Данил Дмитриев, Денис Баранов, Евгения Каверау, Дарья Хорошилова, Таисия Введенская, Алла Малкова, Ульяна Ворожейкина

Описание:

В жизни хирурга Евгении Королевой все было хорошо, пока однажды в больницу не прислали из Москвы нового заведующего Илью Соколова. Новый начальник сразу начинает наводить в отделении свои порядки, и Жене непросто найти с ним общий язык. Несмотря на конфликт, Женя и Илья вынуждены работать бок о бок, вместе спасая жизни пациентов. Они сами не замечают, как постепенно враждебность между ними сменяется симпатией, а потом и более глубокими чувствами.

Качество: HDTV 1080i
Формат: MPEG-TS

Видео: MPEG-TS AVC, ~ 5100 Кбит/с, 1920x1080
Аудио#1: Русский (AC3, 6 ch, 384 Кбит/с)
Аудио#2: Русский (MP2, 2 ch, 192 Кбит/с)
скриншот   скриншот   скриншот   скриншот  

Общее
Идентификатор : 1 (0x1)
Полное имя : F:\Praktika.HDTV(1080i).GeneralFilm\Praktika.01.HDTV(1080i).GeneralFilm.ts
Формат : MPEG-TS
Размер файла : 2,06 Гбайт
Продолжительность : 49 м. 1 с.
Режим общего битрейта : Переменный
Общий поток : 6017 Кбит/сек

Видео
Идентификатор : 604 (0x25C)
Идентификатор меню : 80 (0x50)
Формат : AVC
Формат/Информация : Advanced Video Codec
Профиль формата : High@L4
Параметр CABAC формата : Да
Параметр RefFrames формата : 3 кадра
Параметр GOP формата : M=4, N=32
Идентификатор кодека : 27
Продолжительность : 49 м. 1 с.
Битрейт : 5138 Кбит/сек
Ширина : 1920 пикселей
Высота : 1080 пикселей
Соотношение сторон : 16:9
Частота кадров : 25,000 кадров/сек
Стандарт вещания : Component
Цветовое пространство : YUV
Субдискретизация насыщенности : 4:2:0
Битовая глубина : 8 бит
Тип развёртки : Чересстрочная
Метод сохранения типа развёртки : Раздельные поля
Порядок развёртки : Верхнее поле первое
Бит/(Пиксели*Кадры) : 0.099
Размер потока : 1,76 Гбайт (85%)
Цветовой диапазон : Limited
Основные цвета : BT.709
Характеристики трансфера : BT.709
Коэффициенты матрицы : BT.709

Аудио #1
Идентификатор : 607 (0x25F)
Идентификатор меню : 80 (0x50)
Формат : AC-3
Формат/Информация : Audio Coding 3
Расширение режима : CM (complete main)
Параметр Endianness формата : Big
Идентификатор кодека : 6
Продолжительность : 49 м. 1 с.
Вид битрейта : Постоянный
Битрейт : 384 Кбит/сек
Каналы : 6 каналов
Расположение каналов : Front: L C R, Side: L R, LFE
Частота : 48,0 КГц
Частота кадров : 31,250 кадров/сек (1536 spf)
Метод сжатия : С потерями
Задержка видео : -120 мс.
Размер потока : 135 Мбайт (6%)
Язык : Russian

Аудио #2
Идентификатор : 608 (0x260)
Идентификатор меню : 80 (0x50)
Формат : MPEG Audio
Версия формата : Version 1
Профиль формата : Layer 2
Идентификатор кодека : 3
Продолжительность : 49 м. 1 с.
Вид битрейта : Постоянный
Битрейт : 192 Кбит/сек
Каналы : 2 канала
Частота : 48,0 КГц
Метод сжатия : С потерями
Задержка видео : -120 мс.
Размер потока : 67,3 Мбайт (3%)
Язык : Russian

pb.wtf



Скачать Практика через торрент http://s017.radikal.ru/i434/1605/f2/fa511d2215e3.jpg Скачать фильм Практика через торрент бесплантно в хорошем качестве Описание: В жизни хирурга Евгении Королевой все было хорошо, пока однажды в больницу не прислали из Москвы нового заведующего Илью ... 10 10 2
Info! Золотая раздача, скачанное не засчитывается.
Торрент: Зарегистрирован [2018-06-05 15:13] · скачан: 2 раз
Статус: √ проверено
Размер: 82.05 GB
Как cкачать? Как скачать Практика через торрент | qTorrent

% Раздел Тема Автор DL S | L
Наши сериалы [ 29.38 GB ] Практика / Сезон: 1 / Серии: 1-40 из 40 [2014 Медицина HDTVRip-AVC] bober100 Скачать
1 | 0
Наши сериалы [ 24.51 GB ] Практика / Сезон: 1 / Серии: 1-40 из 40 [2014 Медицина HDTVRip] bober100 Скачать
2 | 0
Наши сериалы [ 5.26 GB ] Практика / Сезон: 2 / Серии: 1-8 из 40 [2018 Медицина SATRip] bober100 Скачать
1 | 0
Наши сериалы [ 24.61 GB ] Практика / Сезон: 2 / Серии: 1-40 из 40 [2018 WEBRip-AVC] aleksan55 Скачать
1 | 0
Наши сериалы [ 21.51 GB ] Практика / Сезон: 1 / Серии 1-40 из 40 [2014 Россия SATRip) GEKADOL Скачать
1 | 0

28-11-2019 20:33  

Отключить всю рекламу на сайте

    Дорогой пользователь! Огромная просьба, поблагодарите релизера, оцените раздачу и оставьте свои комментарий, если Вы скачали Практика через торрент бесплатно! Внесите свою лепту в развитие PiratBit!
    Комментировать посты могут только пользователи прошедшие не сложную регистрацию
    Показать сообщения:    

    Практика через торрент
    Скачать бесплатно Практика
    Практика скачать торрент
    Практика смотреть онлайн
    Cкачать фильм Практика бесплатно
    Практика скачать торрент в хорошем качестве
    Практика смотреть онлайн бесплатно в хорошем качестве


    Вы не можете начинать темы
    Вы не можете отвечать на сообщения
    Вы не можете редактировать свои сообщения
    Вы не можете удалять свои сообщения
    Вы не можете голосовать в опросах
    Вы не можете прикреплять файлы к сообщениям
    Вы можете скачивать файлы