Ссылка на приватное зеркало всего за 1$. Внимание количество ограничено!!!

OK

1+1

iTunes

мы

OK

1

WEB-DLRip

Джокер

Пифагор

Ведьмак / The Witcher сериал

Лицензия

ПШазам

ОК

Оно 2

iTunes

30
pack

Вам бонус

ВАЖНО

!!Акция!!

Alien_RageХит недели

RePack

Resident Evil 21

ИГРА 18+

pack

RePack

jed

!!Акция!!

Alien_Rage

RePack

fifa19

RePack

Assassins Creed: Odyssey

RePack

NEED FOR SPEED™ PAYBACK

4 сезон

9 сезон

Бесстыжие 9 сезон

Все сериалы

все сериалы на PB.wtf

RePack

FAR CRY 5
  

Ноябрь / November (Райнер Сарнет) [2017, фэнтези, драма, мелодрама, DVDRip-AVC] VO [visanti-vasaer] pb.wtf

Ноябрь через торрент pb.wtf

Размер: 1.21 GB | Добавлен: 1 год 7 мес. назад | Торрент скачан:69 раз
Скачать  

05-06-2018 19:04 Ноябрь Скачать торрент  

Ноябрь / November

Год выпуска: 2017
Страна: Эстония, Нидерланды, Польша
Жанр: фэнтези, драма, мелодрама

Продолжительность: 01:50:23
Перевод: Любительский одноголосый [visanti-vasaer]
Примечание: Релиз без рекламы
Субтитры: Русские (полные), английские (хардсаб)
Режиссер: Райнер Сарнет
В ролях:

Реа Лест (Liina), Jörgen Liik (Hans), Арво Кукумяги (Rein), Катариина Унт (Luise), Таави Ээльмаа (Ints), Heino Kalm (Sander), Меелис Ряммельд (Jaan), Дитер Лазер (Baron), Jette Loona Hermanis (Baroness), Ян Тооминг (Devil), Klara Eighorn (Witch), Ene Pappel (Imbi)
Описание:
Действие происходит в языческом эстонском селе, где водятся оборотни, ведьмы и появились странные существа. Молоденькая крестьянская девушка Лийна безнадёжно влюблена в сельского парня Ханса. Ему же нравится прекрасная барышня из поместья.
Рейтинг:
rating
Доп. информация: Фильм выдвинут Эстонией на премию «Оскар» за лучший фильм на иностранном языке в 2018г.
Качество: DVDRip-AVC
Формат: MKV
Видео: AVC, 720x400 (16:9), 1189 kbps, 25 fps, 0,165 bpp
Аудио №1: русский / AC3 / 2.0 / 48 kHz / 192 kbps / |VO|
Аудио №2: эстонский / AC3 / 2.0 / 48 kHz / 192 kbps /

General
Unique ID : 187188640476361581248873913253405074699 (0x8CD33885F8ED3E2FB96565951CB7250B)
Complete name : F:\torrent\film\Ноябрь.mkv
Format : Matroska
Format version : Version 2
File size : 1.21 GiB
Duration : 1 h 50 min
Overall bit rate : 1 575 kb/s
Encoded date : UTC 2018-06-04 18:06:26
Writing application : mkvmerge v6.9.1 ('Blue Panther') 32bit built on Apr 18 2014 18:15:44
Writing library : libebml v1.3.0 + libmatroska v1.4.1

Video
ID : 1
Format : AVC
Format/Info : Advanced Video Codec
Format profile : High@L3
Format settings, CABAC : Yes
Format settings, ReFrames : 7 frames
Codec ID : V_MPEG4/ISO/AVC
Duration : 1 h 50 min
Bit rate : 1 189 kb/s
Width : 720 pixels
Height : 400 pixels
Display aspect ratio : 16:9
Frame rate mode : Constant
Frame rate : 25.000 FPS
Color space : YUV
Chroma subsampling : 4:2:0
Bit depth : 8 bits
Scan type : Progressive
Bits/(Pixel*Frame) : 0.165
Stream size : 915 MiB (74%)
Writing library : x264 core 152 r2851 ba24899
Encoding settings : cabac=1 / ref=7 / deblock=1:0:0 / analyse=0x3:0x113 / me=esa / subme=9 / psy=1 / psy_rd=1.00:0.00 / mixed_ref=1 / me_range=24 / chroma_me=1 / trellis=1 / 8x8dct=1 / cqm=0 / deadzone=21,11 / fast_pskip=1 / chroma_qp_offset=-2 / threads=1 / lookahead_threads=1 / sliced_threads=0 / nr=0 / decimate=1 / interlaced=0 / bluray_compat=0 / constrained_intra=0 / bframes=7 / b_pyramid=2 / b_adapt=1 / b_bias=0 / direct=1 / weightb=1 / open_gop=0 / weightp=2 / keyint=250 / keyint_min=25 / scenecut=40 / intra_refresh=0 / rc_lookahead=40 / rc=2pass / mbtree=1 / bitrate=1189 / ratetol=1.0 / qcomp=0.60 / qpmin=0 / qpmax=69 / qpstep=4 / cplxblur=20.0 / qblur=0.5 / ip_ratio=1.40 / aq=1:1.00
Default : Yes
Forced : No

Audio #1
ID : 2
Format : AC-3
Format/Info : Audio Coding 3
Mode extension : CM (complete main)
Format settings, Endianness : Big
Codec ID : A_AC3
Duration : 1 h 50 min
Bit rate mode : Constant
Bit rate : 192 kb/s
Channel(s) : 2 channels
Channel positions : Front: L R
Sampling rate : 48.0 kHz
Frame rate : 31.250 FPS (1536 spf)
Compression mode : Lossy
Stream size : 152 MiB (12%)
Language : Russian
Default : Yes
Forced : No

Audio #2
ID : 3
Format : AC-3
Format/Info : Audio Coding 3
Mode extension : CM (complete main)
Format settings, Endianness : Big
Codec ID : A_AC3
Duration : 1 h 50 min
Bit rate mode : Constant
Bit rate : 192 kb/s
Channel(s) : 2 channels
Channel positions : Front: L R
Sampling rate : 48.0 kHz
Frame rate : 31.250 FPS (1536 spf)
Compression mode : Lossy
Stream size : 152 MiB (12%)
Language : Estonian
Default : No
Forced : No

Text
ID : 4
Format : UTF-8
Codec ID : S_TEXT/UTF8
Codec ID/Info : UTF-8 Plain Text
Language : Russian
Default : Yes
Forced : No
pb.wtf



Скачать Ноябрь через торрент http://i104.fastpic.ru/big/2018/0605/0e/10bc929711af5b39c9953f9fff3cd50e.jpg Скачать фильм Ноябрь через торрент бесплантно в хорошем качестве Описание: Действие происходит в языческом эстонском селе, где водятся оборотни, ведьмы и появились странные существа. Молоденькая ... 7.8 10 4
Торрент: Зарегистрирован [2018-06-05 19:04] · скачан: 69 раз
Статус: T временная
Размер: 1.21 GB
Как cкачать? Как скачать Ноябрь через торрент | qTorrent

% Раздел Тема Автор DL S | L
Фильмы (WEB-DL 720p, 1080p) [ 8.23 GB ] Сладкий ноябрь / Sweet November [2001 WEB-DLRip 720p] DUB schultz Скачать
1 | 0
Фильмы 2001-2005 [ 2.18 GB ] Сладкий ноябрь / Sweet November [2001 DVDRip] Petr666 Скачать
1 | 0
T Фильмы (мультфильмы) cо спонсором показа (Новинки AVI/MKV) [ 1.37 GB ] Холодный Ноябрь / Cold November [2017 WEB-DLRip] MVO ["Синема УС"] bober100 Скачать
1 | 0
Фильмы [HD 720p, 1080p] (Хороший звук DUB, MVO) [ 9.11 GB ] Ноябрьские преступники / November Criminals [2017 BDRip 1080p] MVO [] bober100 Скачать
1 | 0
Фильмы 2017 [DVDrip, WEB-DLRip, HDrip] (DUB, MVO) [ 1.46 GB ] Ноябрьские преступники / November Criminals [2017 BDRip] MVO [] Twi7ter Скачать
1 | 0
Фильмы 2017 [DVDrip, WEB-DLRip, HDrip] (DUB, MVO) [ 1.46 GB ] Ноябрьские преступники / November Criminals [2017 HDRip многоголосый закадровый " BD EUR"] coc900 Скачать
1 | 0
Фильмы (Blu-ray, BD-Remux, HDDVD) [ 16.59 GB ] Ноябрьские преступники / November Criminals [2017 BD Remux 1080p] MVO [] bober100 Скачать
1 | 0

28-11-2019 20:33  

Отключить всю рекламу на сайте


05-06-2018 19:12 Ноябрь Скачать торрент  

вий 5 ? pb.wtf



06-06-2018 04:30 Ноябрь Скачать торрент  

Чухонский "Хоббит" pb.wtf



09-06-2018 13:08 Ноябрь Скачать торрент  

че за фантасмагория?! кино про инопланетян? на втором скрине похоже анальный зонд, а на третьем похищение теленка злобным летучим андроидом. очевидно для инопланетных опытов))pb.wtf



11-06-2018 07:16 Ноябрь Скачать торрент  

Ну жесть...pb.wtf



    Дорогой пользователь! Огромная просьба, поблагодарите релизера, оцените раздачу и оставьте свои комментарий, если Вы скачали Ноябрь через торрент бесплатно! Внесите свою лепту в развитие PiratBit!
    Комментировать посты могут только пользователи прошедшие не сложную регистрацию
    Показать сообщения:    

    Ноябрь через торрент
    Скачать бесплатно Ноябрь
    Ноябрь скачать торрент
    Ноябрь смотреть онлайн
    Cкачать фильм Ноябрь бесплатно
    Ноябрь скачать торрент в хорошем качестве
    Ноябрь смотреть онлайн бесплатно в хорошем качестве


    Вы не можете начинать темы
    Вы не можете отвечать на сообщения
    Вы не можете редактировать свои сообщения
    Вы не можете удалять свои сообщения
    Вы не можете голосовать в опросах
    Вы не можете прикреплять файлы к сообщениям
    Вы можете скачивать файлы