Ссылка на приватное зеркало нашего сайта всего за 1$. Внимание количество ограничено!!!

2 сезон

iTunes

1 сезон

1

iTunes

iTunes

iTunes

1 сезон

RePack

30

ИГРА 18+

pack

ВАЖНО

!!Акция!!

Alien_RageХит недели

RePack

MK11
pack

Забери бонус

RePack

jed

!!Акция!!

Alien_Rage

RePack

fifa19

RePack

Assassins Creed: Odyssey

RePack

NEED FOR SPEED™ PAYBACK

4 сезон

9 сезон

Бесстыжие 9 сезон

Все сериалы

все сериалы на PB.wtf

RePack

FAR CRY 5
  

Виноград / Серии: 1-4 из 4 (Алексей Гусев) [2017, Мелодрама, SATRip] pb.wtf

Виноград через торрент pb.wtf

Размер: 2.34 GB | Добавлен: 2 года 4 мес. назад | Торрент скачан:55 раз
Скачать  

05-06-2018 21:55 Виноград Скачать торрент  

Виноград
Год выпуска: 2017
Страна: Россия, Украина
Жанр: Мелодрама
Продолжительность: ~ 00:45:00
Перевод: Не требуется
Субтитры: отсутствуют

Режиссер: Алексей Гусев

В ролях:

Артём Позняк, Алла Юганова, Анна Абрамёнок, Виталий Салий, Андрей Карако, Полина Носыхина, Оксана Жданова, Сергей Калантай, Евгений Ефремов (II), Александр Печерица, Леся Самаева, Александр Данильченко, Вячеслав Василюк, Владимир Ямненко, Александр Ярема, Анатолий Ященко, Сергей Булин

Описание:

Артем Дружинин делает стремительную карьеру в бизнесе. Но в тот момент, когда он готов стать доверенным лицом своего босса Рогова и жениться на его дочери Ларе, выясняется, что его будущий тесть замешан в финансовых махинациях. И намерение Рогова сдать все официальные полномочия по управлению компанией Артему вызвано тем, что он хочет его подставить. Артем дает показания против несостоявшегося тестя. Но теперь он вынужден скрываться.

Качество: SATRip
Формат: AVI

Видео: XviD, 1682 Кбит/с, 720x400
Аудио: AC3, 2 ch, 192 Кбит/с
скриншот   скриншот   скриншот   скриншот  

Общее
Полное имя : F:\Виноград.2017.SATRip.Files-x\01.Виноград.2017.SATRip.Files-x.avi
Формат : AVI
Формат/Информация : Audio Video Interleave
Размер файла : 602 Мбайт
Продолжительность : 44 м. 42 с.
Общий поток : 1884 Кбит/сек
Программа кодирования : VirtualDubMod 1.5.10.3 | www.virtualdub-fr.org || (build 2550/release)
Библиотека кодирования : VirtualDubMod build 2550/release

Видео
Идентификатор : 0
Формат : MPEG-4 Visual
Профиль формата : Advanced Simple@L5
Параметр BVOP формата : 1
Параметр QPel формата : Да
Параметр GMC формата : Без точки перехода
Параметр матрицы формата : Выборочная
Идентификатор кодека : XVID
Идентификатор кодека/Подсказка : XviD
Продолжительность : 44 м. 42 с.
Битрейт : 1682 Кбит/сек
Ширина : 720 пикселей
Высота : 400 пикселей
Соотношение сторон : 16:9
Частота кадров : 25,000 кадров/сек
Цветовое пространство : YUV
Субдискретизация насыщенности : 4:2:0
Битовая глубина : 8 бит
Тип развёртки : Прогрессивная
Метод сжатия : С потерями
Бит/(Пиксели*Кадры) : 0.223
Размер потока : 514 Мбайт (85%)
Библиотека кодирования : XviD 73

Аудио
Идентификатор : 1
Формат : AC-3
Формат/Информация : Audio Coding 3
Расширение режима : CM (complete main)
Параметр Endianness формата : Big
Идентификатор кодека : 2000
Продолжительность : 44 м. 42 с.
Вид битрейта : Постоянный
Битрейт : 192 Кбит/сек
Каналы : 2 канала
Расположение каналов : Front: L R
Частота : 48,0 КГц
Частота кадров : 31,250 кадров/сек (1536 spf)
Метод сжатия : С потерями
Размер потока : 61,4 Мбайт (10%)
Выравнивание : Разделение по промежуткам

pb.wtf



Скачать Виноград через торрент http://i104.fastpic.ru/big/2018/0603/b7/f9509f7b7a5af39dc23f5e336d703db7.jpg Скачать фильм Виноград через торрент бесплантно в хорошем качестве Описание: Артем Дружинин делает стремительную карьеру в бизнесе. Но в тот момент, когда он готов стать доверенным лицом своего босса Рогова ... 9.8 10 5
Info! Золотая раздача, скачанное не засчитывается.
Торрент: Зарегистрирован [2018-06-05 21:55] · скачан: 55 раз
Статус: √ проверено
Размер: 2.34 GB
Как cкачать? Как скачать Виноград через торрент | qTorrent

% Раздел Тема Автор DL S | L
Наши сериалы [ 2.11 GB ] Сашкина удача / Серии: 1-4 из 4 [2019 SATRip-AVC] aleksan55 Скачать
1 | 0
Наши сериалы [ 2.32 GB ] Соседи / Сезон: 3 / Серии: 1-4 из 4 [2019 SATRip-AVC] aleksan55 Скачать
1 | 0
Наши сериалы [ 2.34 GB ] Соседи / Сезон: 2 / Серии: 1-4 из 4 [2019 SATRip] bober100 Скачать
1 | 0
Наши сериалы [ 2.34 GB ] Соседи / Сезон: 2 / Серии: 1-4 из 4 [2019 SATRip-AVC] aleksan55 Скачать
1 | 0
Наши сериалы [ 2.79 GB ] Соседи / Серия 1-4 из 4 / [2018 Мело SATRip] oleg8 Скачать
1 | 0
Наши сериалы [ 2.44 GB ] Соседи / Серии: 1-4 из 4 [2017 SATRip-AVC] aleksan55 Скачать
1 | 0
Наши сериалы [ 23.03 GB ] Братаны 4 / Серии 1-32 из 32 + Послесловие [2014 Россия WEB-DLRip-AVC) GEKADOL Скачать
1 | 0

28-11-2019 20:33  

Отключить всю рекламу на сайте

    Дорогой пользователь! Огромная просьба, поблагодарите релизера, оцените раздачу и оставьте свои комментарий, если Вы скачали Виноград через торрент бесплатно! Внесите свою лепту в развитие PiratBit!
    Комментировать посты могут только пользователи прошедшие не сложную регистрацию
    Показать сообщения:    

    Виноград через торрент
    Скачать бесплатно Виноград
    Виноград скачать торрент
    Виноград смотреть онлайн
    Cкачать фильм Виноград бесплатно
    Виноград скачать торрент в хорошем качестве
    Виноград смотреть онлайн бесплатно в хорошем качестве


    Вы не можете начинать темы
    Вы не можете отвечать на сообщения
    Вы не можете редактировать свои сообщения
    Вы не можете удалять свои сообщения
    Вы не можете голосовать в опросах
    Вы не можете прикреплять файлы к сообщениям
    Вы можете скачивать файлы