Ссылка на приватное зеркало нашего сайта всего за 1$. Внимание количество ограничено!!!

2 сезон

iTunes

1 сезон

1

2 сезон

2 сезон

iTunes

1 сезон

RePack

30

Ultimate

ВАЖНО

ИГРА 18+

pack

RePack

MK11
pack

Забери бонус

RePack

jed

!!Акция!!

Alien_Rage

RePack

fifa19

RePack

Assassins Creed: Odyssey

RePack

NEED FOR SPEED™ PAYBACK

4 сезон

9 сезон

Бесстыжие 9 сезон

Все сериалы

все сериалы на PB.wtf

RePack

FAR CRY 5
  

Дождь / The Rain / Сезон: 1 / Серии: 1-8 из 8 (Кеннет Кайнц, Наташа Артю) [2018, Триллер, WEB-DL 1080p] [MVO] (FocusStudio) pb.wtf

Дождь через торрент pb.wtf

Размер: 13.04 GB | Добавлен: 2 года 5 мес. назад | Торрент скачан:57 раз
Скачать  

06-06-2018 05:23 Дождь Скачать торрент  

Дождь / The Rain Год выпуска: 2018
Страна: Дания, США
Жанр: фантастика, драма, триллер
Продолжительность: 8 x ~ 00:40:00
Озвучание: Профессиональное (многоголосое закадровое) FocusStudio *Без цензуры!*

Режиссеры: Кеннет Кайнц, Наташа Артю

В ролях: Альба Аугуст, Лукас Тоннесен, Миккель Боэ Фёльсгор, Lukas Lokken, Jessica Dinnage, Angela Bundalovic, Йоханнес Кунке, Sonny Lindberg, Виктор Мельников, Рашид Айтуганов и др.

Описание: Шесть лет назад смертоносный вирус стёр с лица Земли почти всё человечество. Брат и сестра скрываются в специальном бункере, пока обстоятельства не вынуждают их выйти на поверхность. Вскоре после этого они отправляются на поиски пропавшего без вести отца, который, уходя, приказал сестре беречь брата любой ценой и оставил загадочные предостережения.

Релиз:



Качество: WEB-DL 1080p
Формат: MKV
Видео: 1920x1080, 25 fps, MPEG-4 AVC ~6000 kbps avg
Аудио Rus: 48 kHz, AC3 Dolby Digital, 3/2 (L,C,R,l,r) + LFE ch, ~384.00 kbps
Аудио Eng: 48 kHz, AC3 Dolby Digital, 3/2 (L,C,R,l,r) + LFE ch, ~384.00 kbps
Субтитры: нет
General
Unique ID : 185135606996769233461718798762447941918 (0x8B47D22862C42BBB940282675467311E)
Complete name : The.Rain.S01E01.WEB-DL.1080p.FocusStudio.mkv
Format : Matroska
Format version : Version 4 / Version 2
File size : 1.61 GiB
Duration : 46 min 56 s
Overall bit rate mode : Variable
Overall bit rate : 4 912 kb/s
Movie name : Rain 1x01 @ FocusStudio
Encoded date : UTC 2018-06-03 10:12:29
Writing application : mkvmerge v8.1.0 ('Psychedelic Postcard') 64bit
Writing library : libebml v1.3.1 + libmatroska v1.4.2

Video
ID : 1
Format : AVC
Format/Info : Advanced Video Codec
Format profile : Main@L4
Format settings : CABAC / 3 Ref Frames
Format settings, CABAC : Yes
Format settings, ReFrames : 3 frames
Codec ID : V_MPEG4/ISO/AVC
Duration : 46 min 56 s
Bit rate mode : Variable
Bit rate : 4 220 kb/s
Maximum bit rate : 6 330 kb/s
Width : 1 920 pixels
Height : 1 080 pixels
Display aspect ratio : 16:9
Frame rate mode : Constant
Frame rate : 25.000 FPS
Color space : YUV
Chroma subsampling : 4:2:0
Bit depth : 8 bits
Scan type : Progressive
Bits/(Pixel*Frame) : 0.081
Stream size : 1.33 GiB (82%)
Writing library : x264 core 148 r2715 7e75228
Encoding settings : cabac=1 / ref=3 / deblock=1:0:0 / analyse=0x1:0x111 / me=umh / subme=10 / psy=1 / psy_rd=1.00:0.00 / mixed_ref=1 / me_range=24 / chroma_me=1 / trellis=2 / 8x8dct=0 / cqm=0 / deadzone=21,11 / fast_pskip=1 / chroma_qp_offset=-2 / threads=8 / lookahead_threads=1 / sliced_threads=0 / nr=0 / decimate=1 / interlaced=0 / bluray_compat=0 / stitchable=1 / constrained_intra=0 / bframes=2 / b_pyramid=0 / b_adapt=2 / b_bias=0 / direct=3 / weightb=1 / open_gop=0 / weightp=2 / keyint=50 / keyint_min=26 / scenecut=0 / intra_refresh=0 / rc_lookahead=50 / rc=2pass / mbtree=1 / bitrate=4220 / ratetol=1.0 / qcomp=0.50 / qpmin=6 / qpmax=51 / qpstep=4 / cplxblur=20.0 / qblur=0.5 / vbv_maxrate=6330 / vbv_bufsize=8440 / nal_hrd=vbr / filler=0 / ip_ratio=1.40 / aq=1:1.00
Default : Yes
Forced : No

Audio #1
ID : 2
Format : AC-3
Format/Info : Audio Coding 3
Codec ID : A_AC3
Duration : 46 min 56 s
Bit rate mode : Constant
Bit rate : 384 kb/s
Channel(s) : 6 channels
Channel positions : Front: L C R, Side: L R, LFE
Sampling rate : 48.0 kHz
Frame rate : 31.250 FPS (1536 SPF)
Bit depth : 16 bits
Compression mode : Lossy
Stream size : 129 MiB (8%)
Title : MVO FocusStudio
Language : Russian
Service kind : Complete Main
Default : Yes
Forced : No

Audio #2
ID : 3
Format : AC-3
Format/Info : Audio Coding 3
Codec ID : A_AC3
Duration : 46 min 56 s
Bit rate mode : Constant
Bit rate : 384 kb/s
Channel(s) : 6 channels
Channel positions : Front: L C R, Side: L R, LFE
Sampling rate : 48.0 kHz
Frame rate : 31.250 FPS (1536 SPF)
Bit depth : 16 bits
Compression mode : Lossy
Stream size : 129 MiB (8%)
Language : English
Service kind : Complete Main
Default : No
Forced : No
скриншот  скриншот  скриншот  
pb.wtf



Скачать Дождь через торрент http://i104.fastpic.ru/big/2018/0511/85/1ec6ef5e93564dfbf2eb13187970ec85.jpg Скачать фильм Дождь через торрент бесплантно в хорошем качестве Описание: Шесть лет назад смертоносный вирус стёр с лица Земли почти всё человечество. Брат и сестра скрываются в специальном бункере, пока ... 10 10 3
Торрент: Зарегистрирован [2018-06-06 05:23] · скачан: 57 раз
Статус: √ проверено
Размер: 13.04 GB
Как cкачать? Как скачать Дождь через торрент | qTorrent

% Раздел Тема Автор DL S | L
Зарубежные сериалы [ 3.89 GB ] Дождь / The Rain / Сезон: 1 / Серии: 1-8 из 8 [2018 WEB-DLRip] MVO [Good People] bober100 Скачать
1 | 0
Зарубежные сериалы [ 13.05 GB ] Дождь / The Rain / Сезон: 1 / Серии: 1-8 из 8 [2018 WEBRip 1080p] MVO [TVShows] bober100 Скачать
1 | 0
Зарубежные сериалы [ 5.43 GB ] Дождь / The Rain / Сезон: 1 / Серии: 1-8 из 8 [2018 WEBRip] MVO [TVShows] bober100 Скачать
1 | 0
Зарубежные сериалы [ 4.18 GB ] Дождь / The Rain / Сезон: 1 / Серии: 1-8 из 8 [2018 WEB-DLRip] DVO [Кубик в Кубе] bober100 Скачать
1 | 0
Зарубежные сериалы [ 6.37 GB ] Дождь / The Rain / Сезон: 1 / Серии: 1-8 из 8 [2018 WEBRip] MVO [Jaskier] bober100 Скачать
1 | 0
Зарубежные сериалы [ 3.78 GB ] Дождь / The Rain / Сезон: 1 / Серии: 1-8 из 8 [2018 WEBRip] MVO [Jaskier] bober100 Скачать
1 | 0
Зарубежные сериалы [ 5.46 GB ] Дождь / The Rain / Сезон: 1 / Серии: 1-8 из 8 [2018 WEBRip 720p] DVO [SunshineStudio] bober100 Скачать
1 | 0

28-11-2019 20:33  

Отключить всю рекламу на сайте

    Дорогой пользователь! Огромная просьба, поблагодарите релизера, оцените раздачу и оставьте свои комментарий, если Вы скачали Дождь через торрент бесплатно! Внесите свою лепту в развитие PiratBit!
    Комментировать посты могут только пользователи прошедшие не сложную регистрацию
    Показать сообщения:    

    Дождь через торрент
    Скачать бесплатно Дождь
    Дождь скачать торрент
    Дождь смотреть онлайн
    Cкачать фильм Дождь бесплатно
    Дождь скачать торрент в хорошем качестве
    Дождь смотреть онлайн бесплатно в хорошем качестве


    Вы не можете начинать темы
    Вы не можете отвечать на сообщения
    Вы не можете редактировать свои сообщения
    Вы не можете удалять свои сообщения
    Вы не можете голосовать в опросах
    Вы не можете прикреплять файлы к сообщениям
    Вы можете скачивать файлы